Ссылка на приватное зеркало нашего сайта всего за 1$. Внимание количество ограничено!!!

2 сезон

iTunes

1 сезон

1

2 сезон

2 сезон

iTunes

1 сезон

RePack

30

Ultimate

ВАЖНО

ИГРА 18+

pack

RePack

MK11
pack

Забери бонус

RePack

jed

!!Акция!!

Alien_Rage

RePack

fifa19

RePack

Assassins Creed: Odyssey

RePack

NEED FOR SPEED™ PAYBACK

4 сезон

9 сезон

Бесстыжие 9 сезон

Все сериалы

все сериалы на PB.wtf

RePack

FAR CRY 5
  

Добро пожаловать в Дарем / Durham County / Сезон: 3 / Серии: 1-6 (6) (Холли Дэйл, Эдриэнн Митчел) [2010, драма, триллер, DVDRip] DVO (Gravi-TV / To4ka) pb.wtf

Добро пожаловать в Дарем через торрент pb.wtf

Размер: 3.64 GB | Добавлен: 6 лет назад | Торрент скачан:28 раз
Скачать  

06-11-2014 15:58 Добро пожаловать в Дарем Скачать торрент  

Добро пожаловать в Дарем / Durham County
Год выпуска: 2010
Страна: Канада
Жанр: драма, триллер
Продолжительность: ~ 00.52.00
Перевод: Любительский двухголосый(Gravi-TV / To4ka)

Режиссер: Холли Дэйл, Эдриэнн Митчел



В ролях: Хью Диллон, Хелен Джой, Лоранс Лебёф, Грейстон Холт, Сисели Остин, Патрик Лаббе, Клаудиа Ферри, Соня Саломяа, Майкл Нардон, Луис Феррейра

Описание: Немало времени минуло со времени побега Рэя Прэйгера. Майк Суини стал детективом-суперинтендантом Округа Дарем, Сэди заканчивает Полицейский Колледж... Но в Округе Дарем по-прежнему есть место жестокости. Майк вовлечён в новое расследование зверского убийства двух подростков, в ходе которого знакомится с бывшим военным Иваном Суджиком, прошлое и настоящее которого таит немало тайн.
Жёсткий атмосферный триллер снова на ваших экранах. Вас ждёт новое путешествие в мрачные глубины человеческой природы.

ВНИМАНИЕ: в сериале присутствуют сцены жестокости и нецензурная брань.
Перевод и редакция: veretskiy (1-4), релиз-группа "Частная Практика" (5)
Озвучка: Murzilka & Snugrik
Монтаж и сведение звука: Murzilka
Работа с видео: Veryserg

Качество: DVDRip
Формат: AVI
Видео кодек: XviD
Аудио кодек: AC3
Видео: 624x352 (16:9), 25.000 fps, ~1300 kbps, ~0.230 bit/pixel
Аудио#1: Rus: 48 kHz, 2 ch, ~192 kbps (Gravi-TV / To4ka)
Аудио#2: Eng: 48 kHz, 2 ch, ~224 kbps
скриншот   скриншот   скриншот   скриншот   скриншот  





General
Complete name : F:\Округ Дарем Durham County\Durham.County.S03.DVD-Rip.[Gravi-TV]\Durham.County.S03E01.Homelands.DVD-Rip.[Gravi-TV].avi
Format : AVI
Format/Info : Audio Video Interleave
File size : 621 MiB
Duration : 50mn 13s
Overall bit rate : 1 728 Kbps
Writing application : VirtualDubMod 1.5.10.1 (build 2366/release)
Writing library : VirtualDubMod build 2366/release

Video
ID : 0
Format : MPEG-4 Visual
Format profile : Advanced Simple@L5
Format settings, BVOP : 2
Format settings, QPel : No
Format settings, GMC : No warppoints
Format settings, Matrix : Default (H.263)
Codec ID : XVID
Codec ID/Hint : XviD
Duration : 50mn 13s
Bit rate : 1 297 Kbps
Width : 624 pixels
Height : 352 pixels
Display aspect ratio : 16:9
Frame rate : 25.000 fps
Color space : YUV
Chroma subsampling : 4:2:0
Bit depth : 8 bits
Scan type : Progressive
Compression mode : Lossy
Bits/(Pixel*Frame) : 0.236
Stream size : 466 MiB (75%)
Writing library : XviD 62

Audio #1
ID : 1
Format : AC-3
Format/Info : Audio Coding 3
Mode extension : CM (complete main)
Format settings, Endianness : Big
Codec ID : 2000
Duration : 50mn 13s
Bit rate mode : Constant
Bit rate : 192 Kbps
Channel(s) : 2 channels
Channel positions : Front: L R
Sampling rate : 48.0 KHz
Bit depth : 16 bits
Compression mode : Lossy
Stream size : 69.0 MiB (11%)
Alignment : Split accross interleaves
Interleave, duration : 40 ms (1.00 video frame)
Interleave, preload duration : 500 ms

Audio #2
ID : 2
Format : AC-3
Format/Info : Audio Coding 3
Mode extension : CM (complete main)
Format settings, Endianness : Big
Codec ID : 2000
Duration : 50mn 13s
Bit rate mode : Constant
Bit rate : 224 Kbps
Channel(s) : 2 channels
Channel positions : Front: L R
Sampling rate : 48.0 KHz
Bit depth : 16 bits
Compression mode : Lossy
Stream size : 80.5 MiB (13%)
Alignment : Split accross interleaves
Interleave, duration : 40 ms (1.00 video frame)
Interleave, preload duration : 500 ms


Добро пожаловать в Дарем скачать торрент


pb.wtf



Скачать Добро пожаловать в Дарем через торрент http://pic.kartinco.top/img/2014-11/06/46tzlpx62a5awcuguyvj6f1il.jpg Скачать фильм Добро пожаловать в Дарем через торрент бесплантно в хорошем качестве Описание: Немало времени минуло со времени побега Рэя Прэйгера. Майк Суини стал детективом-суперинтендантом Округа Дарем, Сэди заканчивает ... 8.3 10 3
Торрент: Зарегистрирован [2014-11-06 15:58] · скачан: 28 раз
Статус: √ проверено
Размер: 3.64 GB
Как cкачать? Как скачать Добро пожаловать в Дарем через торрент | qTorrent

28-11-2019 20:33  

Отключить всю рекламу на сайте

06-11-2014 17:20 Добро пожаловать в Дарем Скачать торрент  

3 сезон 2010 Сериал закончен можно смотреть?А то как всегда на самом интересном месте Кто смотрел отпишитесь пожалустаpb.wtf



06-11-2014 18:19 Добро пожаловать в Дарем Скачать торрент  

cadan писал(а):

3 сезон 2010 Сериал закончен можно смотреть?А то как всегда на самом интересном месте Кто смотрел отпишитесь пожалуста

3-й сезон конец...продолжения не будетpb.wtf



    Дорогой пользователь! Огромная просьба, поблагодарите релизера, оцените раздачу и оставьте свои комментарий, если Вы скачали Добро пожаловать в Дарем через торрент бесплатно! Внесите свою лепту в развитие PiratBit!
    Комментировать посты могут только пользователи прошедшие не сложную регистрацию
    Показать сообщения:    

    Добро пожаловать в Дарем через торрент
    Скачать бесплатно Добро пожаловать в Дарем
    Добро пожаловать в Дарем скачать торрент
    Добро пожаловать в Дарем смотреть онлайн
    Cкачать фильм Добро пожаловать в Дарем бесплатно
    Добро пожаловать в Дарем скачать торрент в хорошем качестве
    Добро пожаловать в Дарем смотреть онлайн бесплатно в хорошем качестве


    Вы не можете начинать темы
    Вы не можете отвечать на сообщения
    Вы не можете редактировать свои сообщения
    Вы не можете удалять свои сообщения
    Вы не можете голосовать в опросах
    Вы не можете прикреплять файлы к сообщениям
    Вы можете скачивать файлы