MEGA SALE -50% FORZA HORIZON 4 ULTIMATE+ВСЕ DLC+ОНЛАЙН всего за 599р. 299 руб. (супер цена). Внимание количество ограничено!!!

iTunes

1+1

iTunes

мы

iTunes

1

iTunes

Чернобыль

iTunes

Ральф против интернета

Лицензия

ПШазам

Лицензия

Игра престолов

Лицензия

30
pack

ВАЖНО

!!Акция!!

Alien_RageХит недели

RePack

Resident Evil 21

ИГРА 18+

pack

RePack

Metro:Exodus

!!Акция!!

Alien_Rage

RePack

fifa19

RePack

Assassins Creed: Odyssey

RePack

NEED FOR SPEED™ PAYBACK

3 сезон

9 сезон

Бесстыжие 9 сезон

Все сериалы

все сериалы на PB.wtf

RePack

FAR CRY 5
Ребята, катастрофически не хватает 7730р. для оплаты серверов за АВГУСТ (всвязи с блокировками трафик упал в 3 раза), 1-2р., выручайте.
  

Империя чувств / Ai no corrida (Nagisa Oshima / Нагиса Осима) [1976 г., Драма, HDRip, Профессиональный многоголосый] pb.wtf

Империя чувств через торрент pb.wtf

Размер: 3.1 GB | Добавлен: 4 года 10 мес. назад | Торрент скачан:90 раз
Скачать  

06-11-2014 17:16 Империя чувств Скачать торрент  

Империя чувств / Ai no corrida
Год выпуска: 1976
Страна: Япония, Франция
Жанр: Драма
Продолжительность: 01:42:25
Перевод: Профессиональный многоголосый
Субтитры: Русские, Английские

Режиссер: Nagisa Oshima / Нагиса Осима
Продюссер: Анатоль Доман
Сценарий: Нагиса Осима

В главных ролях:
Тацуя Фудзи — Китидзо Исида
Эйко Мацуда — Сада Абэ
Аой Накадзима — Току
Акико Кояма — гейша
Тайдзи Тонояма — старый бродяга
Мэйка Сэри — Мацуко
Канаэ Кобаяси — пожилая гейша
Кёдзи Коконоэ — учитель Омия


Описание: Действие фильма происходит в Токио в тридцатых годах двадцатого века и основано на реально произошедших событиях. Хозяина публичного дома Китидзо Исиду привлекла новенькая проститутка Сада Абэ. Между ними возникает любовная связь. Исида бросает жену и все свои дела, отдаваясь страсти. Обычной половой близости любовникам становится недостаточно, и они ищут новых удовольствий и экстремальных ощущений. Сада вызывает половое возбуждение удушением и освобождением Исиды. Постепенно продолжительность удушения увеличивается и, в конце концов, не рассчитав, она убивает своего любовника. Обезумевшая от горя, Сада отрезает гениталии любовника и бесцельно бродит по улицам Токио, пока её не арестовывает полиция.Четыре дня ходила Сада с отрезанным пенисом по улицам Токио, а когда ее арестовали, она сияла от счастья. Суд над ней потряс всю Японию, к ней проявили снисхождение, и она была оправдана, получив странную популярность. Произошло это в 1936 в году.
Фильм содержит откровенные сцены полового акта и орального секса.
В 1976 году фильм «Империя чувств» стал сенсацией Каннского фестиваля, где его назвали «первым великим эротическим фильмом». На фестивале, по пожеланиям зрителей, он демонстрировался на 13 экранах, столь широкого показа не было раньше. Фильм также получил Специальный приз на МКФ в Чикаго и приз Британской киноакадемии.
В Японии фильм был показан в укороченной версии (83 мин.), при этом в откровенных сценах интимные подробности были закрашены белыми облачками. После выпуска сценария в Японии Осима был отдан под суд, где продолжал тяжбу с властями четыре года, но был оправдан. В Америке и Европе фильм был вообще запрещён к широкому показу.
Фильм «Империя чувств» входит в список двенадцати самых шокирующих фильмов последних тридцати лет, составленный Британским «Times Online». Все эти фильмы в своё время получили рейтинг X.
В СССР картина попала в 1990 году и прошла ограниченным прокатом. Демонстрация фильма сопровождалась протестами, связанными с непристойным характером картины, который мог шокировать зрителей.
Улица любви и надежды (1959) • История жестокой юности (1960) • Кладбище солнца (1960) • Ночь и туман в Японии (1960) • Содержание скотины (1961) • Восстание христиан (1962) • Удовольствия плоти (1965) • Насилие в полдень (1966) • Лето в Японии: двойное самоубийство (1967) • Смертная казнь через повешение (1968) • Возвращение троих пьяниц (1968) • Дневник вора из Синдзюку (1969) • Мальчик (1969) • История, рассказанная после Токийской войны (1970) • Церемония (1971) • Летняя сестра (1972) • Империя чувств (1976) • Империя страсти (1978) • Счастливого Рождества, мистер Лоуренс (1983) • Макс, моя любовь (1986) • Табу (1999)
Премия «Золотой Хьюго» на МКФ в Чикаго.
Премия Британской киноакадемиии.

Качество: BDRip-AVC
Формат: MKV
Видео кодек: h264 high L4.1
Аудио кодек: AC3
Видео: MPEG4 Video, 956x576, 3500 Kbps, 23.976 Kbps, AVC (High@L4.1)
Audio-1: Dolby AC3 48000Hz stereo 256kbps (MVO_ Русский многоголосый) по умолчанию
Audio-2: Dolby AC3 48000Hz stereo 192kbps (MVO_Русский_R5)
Audio-3: Dolby AC3 48000Hz mono 192kbps (Русский одноголосый Сербин)
Audio-4: Dolby AC3 48000Hz mono 192kbps (Оригинальный Японский)






















eneral
Unique ID : 223511911847887682111755561858587842500 (0xA826D411BA620E84A983B5E6B49257C4)
Complete name : H:\КЛАССИКА\Империя чувств.mkv
Format : Matroska
Format version : Version 4 / Version 2
File size : 3.10 GiB
Duration : 1h 42mn
Overall bit rate : 4 335 Kbps
Movie name : = MediaClub = rip by krakatuq
Encoded date : UTC 2014-05-16 12:49:36
Writing application : mkvmerge v6.6.0 ('The Edge Of The In Between') built on Dec 1 2013 17:55:00
Writing library : libebml v1.3.0 + libmatroska v1.4.1

Video
ID : 1
Format : AVC
Format/Info : Advanced Video Codec
Format profile : High@L4.1
Format settings, CABAC : Yes
Format settings, ReFrames : 9 frames
Codec ID : V_MPEG4/ISO/AVC
Duration : 1h 42mn
Bit rate : 3 500 Kbps
Width : 956 pixels
Height : 576 pixels
Display aspect ratio : 1.660
Frame rate mode : Constant
Frame rate : 23.976 fps
Color space : YUV
Chroma subsampling : 4:2:0
Bit depth : 8 bits
Scan type : Progressive
Bits/(Pixel*Frame) : 0.265
Stream size : 2.44 GiB (79%)
Title : Imperija.chuvstv.1976.x264.BDRip.AVC.MediaClub
Writing library : x264 core 142 r2409+42 04be48a tMod [8-bit@4:2:0 X86]
Encoding settings : cabac=1 / ref=9 / deblock=1:-2:-2 / analyse=0x3:0x133 / me=umh / subme=11 / psy=1 / fade_compensate=0.00 / psy_rd=1.00:0.15 / mixed_ref=1 / me_range=32 / chroma_me=1 / trellis=2 / 8x8dct=1 / cqm=0 / deadzone=21,11 / fast_pskip=0 / chroma_qp_offset=-3 / threads=3 / lookahead_threads=1 / sliced_threads=0 / nr=0 / decimate=0 / interlaced=0 / bluray_compat=0 / constrained_intra=0 / fgo=0 / bframes=8 / b_pyramid=2 / b_adapt=2 / b_bias=0 / direct=3 / weightb=1 / open_gop=0 / weightp=2 / keyint=240 / keyint_min=23 / scenecut=40 / intra_refresh=0 / rc=2pass / mbtree=0 / bitrate=3500 / ratetol=1.0 / qcomp=0.60 / qpmin=0:0:0 / qpmax=69:69:69 / qpstep=4 / cplxblur=20.0 / qblur=0.5 / ip_ratio=1.40 / pb_ratio=1.30 / aq=1:1.00 / aq-sensitivity=10.00 / aq-factor=1.00:1.00:1.00 / aq2=0 / aq3=0
Language : English
Default : Yes
Forced : No

Audio #1
ID : 2
Format : AC-3
Format/Info : Audio Coding 3
Mode extension : CM (complete main)
Format settings, Endianness : Big
Codec ID : A_AC3
Duration : 1h 42mn
Bit rate mode : Constant
Bit rate : 256 Kbps
Channel(s) : 2 channels
Channel positions : Front: L R
Sampling rate : 48.0 KHz
Bit depth : 16 bits
Compression mode : Lossy
Stream size : 188 MiB (6%)
Title : TRACK_01_MVO_RUS
Language : Russian
Default : Yes
Forced : Yes

Audio #2
ID : 3
Format : AC-3
Format/Info : Audio Coding 3
Mode extension : CM (complete main)
Format settings, Endianness : Big
Codec ID : A_AC3
Duration : 1h 42mn
Bit rate mode : Constant
Bit rate : 192 Kbps
Channel(s) : 2 channels
Channel positions : Front: L R
Sampling rate : 48.0 KHz
Bit depth : 16 bits
Compression mode : Lossy
Stream size : 141 MiB (4%)
Title : TRACK_02_MVO_RUS_R5
Language : Russian
Default : No
Forced : No

Audio #3
ID : 4
Format : AC-3
Format/Info : Audio Coding 3
Mode extension : CM (complete main)
Format settings, Endianness : Big
Codec ID : A_AC3
Duration : 1h 42mn
Bit rate mode : Constant
Bit rate : 192 Kbps
Channel(s) : 1 channel
Channel positions : Front: C
Sampling rate : 48.0 KHz
Bit depth : 16 bits
Compression mode : Lossy
Stream size : 141 MiB (4%)
Title : TRACK_03_AVO_RUS_SERBIN
Language : Russian
Default : No
Forced : No

Audio #4
ID : 5
Format : AC-3
Format/Info : Audio Coding 3
Mode extension : CM (complete main)
Format settings, Endianness : Big
Codec ID : A_AC3
Duration : 1h 42mn
Bit rate mode : Constant
Bit rate : 192 Kbps
Channel(s) : 1 channel
Channel positions : Front: C
Sampling rate : 48.0 KHz
Bit depth : 16 bits
Compression mode : Lossy
Stream size : 141 MiB (4%)
Title : TRACK_04_ORIGINAL_JPN
Language : Japanese
Default : No
Forced : No

Text #1
ID : 6
Format : UTF-8
Codec ID : S_TEXT/UTF8
Codec ID/Info : UTF-8 Plain Text
Title : TEXT_01_SUB_RUS
Language : Russian
Default : No
Forced : No

Text #2
ID : 7
Format : UTF-8
Codec ID : S_TEXT/UTF8
Codec ID/Info : UTF-8 Plain Text
Title : TEXT_02_SUB_ENG
Language : English
Default : No
Forced : No

pb.wtf



Скачать Империя чувств через торрент http://i64.fastpic.ru/big/2014/1106/e6/939405a01449537bc3fd83be1f0455e6.jpg Скачать фильм Империя чувств через торрент бесплантно в хорошем качестве Описание: Действие фильма происходит в Токио в тридцатых годах двадцатого века и основано на реально произошедших событиях. Хозяина ... 9.3 10 9
Торрент: Зарегистрирован [2014-11-06 17:16] · скачан: 90 раз
Статус: √ проверено
Размер: 3.1 GB
Как cкачать? Как скачать Империя чувств через торрент | qTorrent


>> Регистрируемся здесь <<






Отзывы и комментарии о схеме читаем и пишем здесь: ---> Отзывы и комментарии о схеме

Новые благодарочки в телеграм довольных пользователей:
скриншот   скриншот   скриншот   скриншот   скриншот

06-11-2014 17:22 Империя чувств Скачать торрент  

В фильме реально присутствуют откровенные сцены сексуального характера (так как эта полная версия фильма), но залить такой шедевр в раздел клубнички было бы кощунством, фильм для искушенных (взрослых серьезных) зрителей драматического жанра. Молодняк.... проходит мимо...

НИЧЕГО ОБЩЕГО С ПОРНО ФИЛЬМ НЕ ИМЕЕТ!!!!!
PS:Скриншоты откровенных сцен фильма и оригинального постера могу выложить отдельно здесь в посте, с разрешения проверяющего это релиз модератора.
Ну вот дождались разрешения, спасибо уважаемому модератору RAVENу, за понимание и доверие.
---------------------------------------------------------------------------------------------------------------Только для лиц достигших 18-летнего возраста























]
Еще раз напоминаю у нас полная версия фильма, Приятного просмотра!!!!!pb.wtf





Последний раз редактировалось: Magnat (2014-11-06 18:47), всего редактировалось 4 раз(а)

06-11-2014 18:06 Империя чувств Скачать торрент  

Magnat писал(а):

[qpost=undefined]выложить отдельно здесь в посте,

Цитата:

с разрешения проверяющего это релиз модератора.

pb.wtf



06-11-2014 19:35 Империя чувств Скачать торрент  

Помню-в кинотеатре смотрели этот фильм.Тогда это было СОБЫТИЕМ!А вообще режиссёр больной нафиг на всю голову,по ходу: Империя Страсти:Описание: В 1895 году в деревне возле Токио женщина и ее любовник убили мужа-рикшу и бросили тело в старый колодец. Три года они встречались тайком, и ей и другим жителям деревни являлся призрак покойного.
Их разоблачили, и после пыток они были казнены. Все это время их страсть не остывала, и последняя встреча любви состоялась на дне колодца среди останков убитого.pb.wtf



06-11-2014 20:34 Империя чувств Скачать торрент  

Stopper68 писал(а):

[qpost=undefined]А вообще режиссёр больной нафиг на всю голову

А может это искусство мы не догоняем :)))))))))))))))))pb.wtf



    Дорогой пользователь! Огромная просьба, поблагодарите релизера, оцените раздачу и оставьте свои комментарий, если Вы скачали Империя чувств через торрент бесплатно! Внесите свою лепту в развитие PiratBit!
    Комментировать посты могут только пользователи прошедшие не сложную регистрацию
    Показать сообщения:    

    Империя чувств через торрент
    Скачать бесплатно Империя чувств
    Империя чувств скачать торрент
    Империя чувств смотреть онлайн
    Cкачать фильм Империя чувств бесплатно
    Империя чувств скачать торрент в хорошем качестве
    Империя чувств смотреть онлайн бесплатно в хорошем качестве


    Вы не можете начинать темы
    Вы не можете отвечать на сообщения
    Вы не можете редактировать свои сообщения
    Вы не можете удалять свои сообщения
    Вы не можете голосовать в опросах
    Вы не можете прикреплять файлы к сообщениям
    Вы можете скачивать файлы