Ссылка на приватное зеркало нашего сайта всего за 1$. Внимание количество ограничено!!!

2 сезон

iTunes

1 сезон

1

2 сезон

2 сезон

iTunes

1 сезон

RePack

30

Ultimate

ВАЖНО

ИГРА 18+

pack

RePack

MK11
pack

Забери бонус

RePack

jed

!!Акция!!

Alien_Rage

RePack

fifa19

RePack

Assassins Creed: Odyssey

RePack

NEED FOR SPEED™ PAYBACK

4 сезон

9 сезон

Бесстыжие 9 сезон

Все сериалы

все сериалы на PB.wtf

RePack

FAR CRY 5
  

Под юбкой в автобусе pb.wtf

Под юбкой в автобусе через торрент pb.wtf

Размер: 39 MB | Добавлен: 4 года 10 мес. назад | Торрент скачан:288 раз
Скачать  

06-11-2014 19:12 Под юбкой в автобусе Скачать торрент  

General
Complete name : C:\Users\olsanskiy\Desktop\3728036_hd.flv
Format : Flash Video
File size : 39.0 MiB
Duration : 2mn 33s
Overall bit rate : 2 125 Kbps
Tagged date : UTC 2014-11-05 11:04:42
Tagging application : flvtool++ (Facebook, Motion project, dweatherford)

Video
Format : AVC
Format/Info : Advanced Video Codec
Format profile : Baseline@L3.1
Format settings, CABAC : No
Format settings, ReFrames : 2 frames
Codec ID : 7
Duration : 2mn 33s
Bit rate : 2 048 Kbps
Width : 1 280 pixels
Height : 720 pixels
Display aspect ratio : 16:9
Frame rate mode : Constant
Frame rate : 30.032 fps
Color space : YUV
Chroma subsampling : 4:2:0
Bit depth : 8 bits
Scan type : Progressive
Bits/(Pixel*Frame) : 0.074
Stream size : 37.6 MiB (96%)
Writing library : x264 core 119
Encoding settings : cabac=0 / ref=2 / deblock=1:0:0 / analyse=0x1:0x111 / me=hex / subme=6 / psy=1 / psy_rd=1.00:0.00 / mixed_ref=0 / me_range=16 / chroma_me=1 / trellis=0 / 8x8dct=0 / cqm=0 / deadzone=21,11 / fast_pskip=1 / chroma_qp_offset=-2 / threads=1 / sliced_threads=0 / nr=0 / decimate=1 / interlaced=0 / bluray_compat=0 / constrained_intra=0 / bframes=0 / weightp=0 / keyint=250 / keyint_min=25 / scenecut=40 / intra_refresh=0 / rc_lookahead=40 / rc=2pass / mbtree=1 / bitrate=2048 / ratetol=1.0 / qcomp=0.50 / qpmin=10 / qpmax=51 / qpstep=4 / cplxblur=20.0 / qblur=0.5 / ip_ratio=1.41 / aq=1:1.00

Audio
Format : AAC
Format/Info : Advanced Audio Codec
Format profile : LC
Codec ID : 10
Duration : 2mn 33s
Bit rate : 65.1 Kbps
Channel count : 2 channels
Channel positions : Front: L R
Sampling rate : 48.0 KHz
Compression mode : Lossy
Stream size : 1.19 MiB (3%)
pb.wtf



pack Скачать Под юбкой в автобусе через торрент http://pic.kartinco.top/img/2014-11/06/8ux7kmusa3lm6cgyptjmkaopu.jpg Скачать фильм Под юбкой в автобусечерез торрент бесплантно в хорошем качестве ... 9.2 10 27
Торрент: Зарегистрирован [2016-01-20 11:42] · скачан: 288 раз
Статус: √ проверено
Размер: 39 MB
Как cкачать? Как скачать Под юбкой в автобусе через торрент | qTorrent

28-11-2019 20:33  

Отключить всю рекламу на сайте

    Дорогой пользователь! Огромная просьба, поблагодарите релизера, оцените раздачу и оставьте свои комментарий, если Вы скачали Под юбкой в автобусе через торрент бесплатно! Внесите свою лепту в развитие PiratBit!
    Комментировать посты могут только пользователи прошедшие не сложную регистрацию
    Показать сообщения:    

    Под юбкой в автобусе через торрент
    Скачать бесплатно Под юбкой в автобусе
    Под юбкой в автобусе скачать торрент
    Под юбкой в автобусе смотреть онлайн
    Cкачать фильм Под юбкой в автобусе бесплатно
    Под юбкой в автобусе скачать торрент в хорошем качестве
    Под юбкой в автобусе смотреть онлайн бесплатно в хорошем качестве


    Вы не можете начинать темы
    Вы не можете отвечать на сообщения
    Вы не можете редактировать свои сообщения
    Вы не можете удалять свои сообщения
    Вы не можете голосовать в опросах
    Вы не можете прикреплять файлы к сообщениям
    Вы можете скачивать файлы