Ссылка на приватное зеркало нашего сайта всего за 1$. Внимание количество ограничено!!!

2 сезон

iTunes

1 сезон

1

2 сезон

2 сезон

iTunes

1 сезон

RePack

30

Ultimate

ВАЖНО

ИГРА 18+

pack

RePack

MK11
pack

Забери бонус

RePack

jed

!!Акция!!

Alien_Rage

RePack

fifa19

RePack

Assassins Creed: Odyssey

RePack

NEED FOR SPEED™ PAYBACK

4 сезон

9 сезон

Бесстыжие 9 сезон

Все сериалы

все сериалы на PB.wtf

RePack

FAR CRY 5
  

Пися крупным планом pb.wtf

Пися крупным планом через торрент pb.wtf

Качают: 2 [ 0 KB/s ]
Размер: 46 MB | Добавлен: 4 года 10 мес. назад | Торрент скачан:274 раза
Скачать  

06-11-2014 19:37 Пися крупным планом Скачать торрент  

 
General
Complete name : D:\вуал\3713682.flv
Format : Flash Video
File size : 45.6 MiB
Duration : 10mn 51s
Overall bit rate : 587 Kbps
Tagged date : UTC 2014-11-02 13:00:19
Tagging application : flvtool++ (Facebook, Motion project, dweatherford)

Video
Format : AVC
Format/Info : Advanced Video Codec
Format profile : Baseline@L3.1
Format settings, CABAC : No
Format settings, ReFrames : 2 frames
Codec ID : 7
Duration : 10mn 51s
Bit rate : 512 Kbps
Width : 426 pixels
Height : 240 pixels
Display aspect ratio : 16:9
Frame rate mode : Constant
Frame rate : 29.970 fps
Color space : YUV
Chroma subsampling : 4:2:0
Bit depth : 8 bits
Scan type : Progressive
Bits/(Pixel*Frame) : 0.167
Stream size : 39.8 MiB (87%)
Writing library : x264 core 119
Encoding settings : cabac=0 / ref=2 / deblock=1:0:0 / analyse=0x1:0x111 / me=hex / subme=6 / psy=1 / psy_rd=1.00:0.00 / mixed_ref=0 / me_range=16 / chroma_me=1 / trellis=0 / 8x8dct=0 / cqm=0 / deadzone=21,11 / fast_pskip=1 / chroma_qp_offset=-2 / threads=1 / sliced_threads=0 / nr=0 / decimate=1 / interlaced=0 / bluray_compat=0 / constrained_intra=0 / bframes=0 / weightp=0 / keyint=250 / keyint_min=25 / scenecut=40 / intra_refresh=0 / rc_lookahead=40 / rc=2pass / mbtree=1 / bitrate=512 / ratetol=1.0 / qcomp=0.50 / qpmin=10 / qpmax=51 / qpstep=4 / cplxblur=20.0 / qblur=0.5 / ip_ratio=1.41 / aq=1:1.00

Audio
Format : AAC
Format/Info : Advanced Audio Codec
Format profile : LC
Codec ID : 10
Duration : 10mn 51s
Bit rate : 64.9 Kbps
Channel count : 2 channels
Channel positions : Front: L R
Sampling rate : 48.0 KHz
Compression mode : Lossy
Stream size : 5.05 MiB (11%)
pb.wtf



pack Скачать Пися крупным планом через торрент http://pic.kartinco.top/img/2014-11/06/u78ard4ni9eodpw0wpsmq8mz6.jpg Скачать фильм Пися крупным планомчерез торрент бесплантно в хорошем качестве ... 9.9 10 36
Info! Золотая раздача, скачанное не засчитывается.
Торрент: Зарегистрирован [2016-01-20 11:37] · скачан: 274 раз
Статус: √ проверено
Размер: 46 MB
Как cкачать? Как скачать Пися крупным планом через торрент | qTorrent



Последний раз редактировалось: DEVI (2016-01-20 11:37), всего редактировалось 1 раз

28-11-2019 20:33  

Отключить всю рекламу на сайте

07-11-2014 15:10 Пися крупным планом Скачать торрент  

DEVI, Респект)))))))pb.wtf



pack
    Дорогой пользователь! Огромная просьба, поблагодарите релизера, оцените раздачу и оставьте свои комментарий, если Вы скачали Пися крупным планом через торрент бесплатно! Внесите свою лепту в развитие PiratBit!
    Комментировать посты могут только пользователи прошедшие не сложную регистрацию
    Показать сообщения:    

    Пися крупным планом через торрент
    Скачать бесплатно Пися крупным планом
    Пися крупным планом скачать торрент
    Пися крупным планом смотреть онлайн
    Cкачать фильм Пися крупным планом бесплатно
    Пися крупным планом скачать торрент в хорошем качестве
    Пися крупным планом смотреть онлайн бесплатно в хорошем качестве


    Вы не можете начинать темы
    Вы не можете отвечать на сообщения
    Вы не можете редактировать свои сообщения
    Вы не можете удалять свои сообщения
    Вы не можете голосовать в опросах
    Вы не можете прикреплять файлы к сообщениям
    Вы можете скачивать файлы