Ссылка на приватное зеркало нашего сайта всего за 1$. Внимание количество ограничено!!!

2 сезон

iTunes

1 сезон

1

2 сезон

2 сезон

iTunes

1 сезон

RePack

30

Ultimate

ВАЖНО

ИГРА 18+

pack

RePack

MK11
pack

Забери бонус

RePack

jed

!!Акция!!

Alien_Rage

RePack

fifa19

RePack

Assassins Creed: Odyssey

RePack

NEED FOR SPEED™ PAYBACK

4 сезон

9 сезон

Бесстыжие 9 сезон

Все сериалы

все сериалы на PB.wtf

RePack

FAR CRY 5
  

Королевство / Kingdom /Сезон: 1 / Серии:1-10 из 10 (Адам Дэвидсон, Гэри Фледер, Дэнни Гордон) [2014 г., драма, HDTVRip] MVO [NewStudio] pb.wtf

Королевство через торрент pb.wtf

Размер: 5.66 GB | Добавлен: 5 лет 11 мес. назад | Торрент скачан:174 раза
Скачать  

06-11-2014 20:01 Королевство Скачать торрент  


Королевство / KingdomГод выпуска: 2014
Страна: США Endemol USA
Жанр: драма
Продолжительность: 10 x ~ 00:45:00
Перевод: Профессиональный многоголосый (NewStudio)

Режиссер: Адам Дэвидсон, Гэри Фледер, Дэнни Гордон
Продюссер: инн Стивенсон, Байрон Баласко, Тим Якофано
Сценарий: Байрон Баласко, Fernanda Coppel, Владимир Цветко

Премьера в мире: 8 октября 2014 В ролях: Фрэнк Грилло, Киле Санчес, Мэтт Лауриа, Джонатан Такер, Ник Джонас, Пол Уолтер Хаузер, Джульетт Джексон, Джо П. Харрис, Джоэнна Гоуинг, Ронни Джин Блевинс

Описание: В жизни главного героя сериала «Королевство» все достаточно запутанно и очень сложно. Он отбывал срок за наркотические вещества. Теперь мужчина вышел на волю… Его семья сейчас переживает не лучшие времена и остро нуждается в деньгах. Потому отец подталкивает парня начать принимать участие в уличных боях, ведь за это достаточно хорошо платят.
Ряд несмелых попыток парня заработать на жизнь честным путем заканчиваются неудачами, потому у него не было другого выхода, как согласиться на предложение отца. Главный герой стал на опасную тропу бойца…
Изнурительные тренировки и прекрасная физическая форма дают свои результаты: он получает одну победу за другой. Однако какие испытания уготовила для него судьба в дальнейшем?..

Качество: HDTVRip
Формат: AVI
Видео кодек: XviD
Аудио кодек: MP3
Видео: Xvid 720x400, 23.976fps, 1 510 Kbps
Аудио#1: MP3, 48000Hz, stereo, 128kbps Русский
Аудио#2: MP3, 48000Hz, stereo, 128kbps Английский
Релиз от: qqss44





General
Complete name : E:\01 02 sicret2\Kingdom (s01)\Kingdom.s01e01.HDTVRip.NewStudio.TV.avi
Format : AVI
Format/Info : Audio Video Interleave
File size : 699 MiB
Duration : 52mn 50s
Overall bit rate : 1 850 Kbps
Writing application : VirtualDubMod 1.5.10.2 (build 2540/release)
Writing library : VirtualDubMod build 2540/release

Video
ID : 0
Format : MPEG-4 Visual
Format profile : Advanced Simple@L5
Format settings, BVOP : 2
Format settings, QPel : No
Format settings, GMC : No warppoints
Format settings, Matrix : Default (MPEG)
Codec ID : XVID
Codec ID/Hint : XviD
Duration : 52mn 50s
Bit rate : 1 510 Kbps
Width : 720 pixels
Height : 400 pixels
Display aspect ratio : 16:9
Frame rate : 23.976 fps
Color space : YUV
Chroma subsampling : 4:2:0
Bit depth : 8 bits
Scan type : Progressive
Compression mode : Lossy
Bits/(Pixel*Frame) : 0.219
Stream size : 571 MiB (82%)
Writing library : XviD 64

Audio #1
ID : 1
Format : MPEG Audio
Format version : Version 1
Format profile : Layer 3
Mode : Joint stereo
Mode extension : MS Stereo
Codec ID : 55
Codec ID/Hint : MP3
Duration : 52mn 50s
Bit rate mode : Constant
Bit rate : 128 Kbps
Channel(s) : 2 channels
Sampling rate : 48.0 KHz
Compression mode : Lossy
Stream size : 48.4 MiB (7%)
Alignment : Aligned on interleaves

Audio #2
ID : 2
Format : MPEG Audio
Format version : Version 1
Format profile : Layer 3
Mode : Joint stereo
Mode extension : MS Stereo
Codec ID : 55
Codec ID/Hint : MP3
Duration : 52mn 50s
Bit rate mode : Constant
Bit rate : 128 Kbps
Channel(s) : 2 channels
Sampling rate : 48.0 KHz
Compression mode : Lossy
Stream size : 48.4 MiB (7%)
Alignment : Aligned on interleaves

Внимание! Раздача ведётся путём добавления новых серий; при каждом добавлении создаётся новый торрент-файл. Чтобы начать дозакачку новой серии, пользователям необходимо сделать следующее:
(1) остановить скачивание,
(2) удалить старый торрент-файл у себя из клиента (старые серии удалять не надо),
(3) скачать новый торрент-файл и запустить его у себя в клиенте вместо старого, при этом указать клиенту путь в старую папку куда и должно происходить скачивание новых серий.
Ваш клиент при этом должен произвести хеширование (проверку) старой папки (если не производит сам - помогите ему сделать это), и будет докачивать только те серии которых у вас ещё нет. Старые серии при этом не удаляются, а продолжают раздаваться!
Eсли вы уже удалили старые серии, то предотвратить повторную закачку старых серий можно, отжав галочку в соответствующих местах при запуске нового торрента.
Добавил 9-10 серию!Обновите торрент! pb.wtf



Скачать Королевство через торрент http://pic.kartinco.top/img/2014-11/07/3m1xu7z0d08o4lkf1l3qnyavj.jpg Скачать фильм Королевство через торрент бесплантно в хорошем качестве Описание: В жизни главного героя сериала «Королевство» все достаточно запутанно и очень сложно. Он отбывал срок за наркотические вещества. ... 9.8 10 11
Info! Серебряная раздача, засчитывается только 50% скачанного.
Торрент: Зарегистрирован [2014-12-25 06:50] · скачан: 174 раз
Статус: √ проверено
Размер: 5.66 GB
Как cкачать? Как скачать Королевство через торрент | qTorrent

% Раздел Тема Автор DL S | L
Зарубежные сериалы [ 19.59 GB ] Последнее Королевство / The Last Kingdom / Сезон: 2 / Серии 1-8 из 8 [2017 Исторический WEB-DLRip 1080] MVO [BaibaKo] Dusster Скачать
1 | 0
Зарубежные сериалы [ 30.35 GB ] Последнее королевство / The Last Kingdom / Сезон: 4 / Серии: 1-10 из 10 [2020 история WEB-DL 1080p] MVO [Lostfilm] bober100 Скачать
1 | 0
Зарубежные сериалы [ 9.69 GB ] Десятое королевство / The 10th Kingdom / Сезон: 1 / Серии: 1-5 из 5 [2000 BDRip AVC] MVO Леонид Ильич Скачать
1 | 0
Зарубежные сериалы [ 7.58 GB ] Последнее королевство / The Last Kingdom / Сезон: 4 / Серии: 1-10 из 10 [2020 история WEB-DLRip] MVO [Lostfilm] bober100 Скачать
2 | 0
Зарубежные сериалы [ 12.99 GB ] Последнее королевство / The Last Kingdom / Сезон: 4 / Серии: 1-10 из 10 [2020 история WEB-DL 720p] MVO [Lostfilm] bober100 Скачать
1 | 0
Зарубежные сериалы [ 10.92 GB ] Последнее королевство / The Last Kingdom / Сезон: 4 / Серии: 1-10 из 10 [2020 история WEB-DLRip] DUB [SDI Media / Netflix] bober100 Скачать
1 | 0
Зарубежные сериалы [ 13.94 GB ] Последнее королевство / The Last Kingdom / Сезон: 4 / Серии: 1-10 из 10 [2020 история WEBRip 720p] DUB [SDI Media / Netflix] bober100 Скачать
1 | 0


Последний раз редактировалось: lug30 (2014-12-25 06:53), всего редактировалось 7 раз(а)

28-11-2019 20:33  

Отключить всю рекламу на сайте

21-11-2014 14:32 Королевство Скачать торрент  

Обновляться будет?pb.wtf



27-11-2014 19:21 Королевство Скачать торрент  

Добавил 5 и 6 серии!Обновляемся!pb.wtf



28-11-2014 06:17 Королевство Скачать торрент  

Спасибоpb.wtf



28-11-2014 20:48 Королевство Скачать торрент  

Добавил 7 серию!Обновите торрент!pb.wtf



04-12-2014 18:49 Королевство Скачать торрент  

Добавил 8 серию!Обновите торрент!pb.wtf



25-12-2014 06:54 Королевство Скачать торрент  

Добавил 9-10 серию!Обновите торрент!pb.wtf



07-11-2018 12:45 Королевство Скачать торрент  

приветpb.wtf



    Дорогой пользователь! Огромная просьба, поблагодарите релизера, оцените раздачу и оставьте свои комментарий, если Вы скачали Королевство через торрент бесплатно! Внесите свою лепту в развитие PiratBit!
    Комментировать посты могут только пользователи прошедшие не сложную регистрацию
    Показать сообщения:    

    Королевство через торрент
    Скачать бесплатно Королевство
    Королевство скачать торрент
    Королевство смотреть онлайн
    Cкачать фильм Королевство бесплатно
    Королевство скачать торрент в хорошем качестве
    Королевство смотреть онлайн бесплатно в хорошем качестве


    Вы не можете начинать темы
    Вы не можете отвечать на сообщения
    Вы не можете редактировать свои сообщения
    Вы не можете удалять свои сообщения
    Вы не можете голосовать в опросах
    Вы не можете прикреплять файлы к сообщениям
    Вы можете скачивать файлы