Присоединяйтесь к нам в Telegram!, здесь всегда актуальный адрес сайта, оперативная поддержка и многое другое!!

>

5.9

iTunes

7.4

iTunes

9.4

1 сезон

1

7.4

2 сезон

7.2

iTunes

7.3

1 сезон

13

6.1

iTunes

8.3

GOG

30

ULTIMATE

pack

9.9

Лицензия

ВАЖНО

ИГРА 18+

pack

7.3

RePack

MK11

7.7

RePack

jed

7.8

RePack

fifa19

8.5

RePack

RDR2

RePack

NEED FOR SPEED™ PAYBACK

5 сезон

9 сезон

Бесстыжие 9 сезон

Все сериалы

все сериалы на PB.wtf

RePack

FAR CRY 5

Anonymous, доброе утро, мы катастрофически не успеваем собрать деньги на оплату серверов, помогите нам пожалуйста 5,10,15р., для нас важна любая помощь . В качестве благодарности мы отключим Вам всю рекламу на сайте (укажите свой ник в строку Ваше имя)!

×
  
Magnet ссылка

Александр Иванов и группа Рондо - "Золотая коллекция видео 1989-2006" [2006 г., Рок, DVDRip] pb.wtf

Александр Иванов и группа Рондо - "Золотая коллекция видео 1989-2006" через торрент pb.wtf

Размер: 2.29 GB | Добавлен: 7 лет назад | Торрент скачан:68 раз
Смотреть онлайн Александр Иванов и группа Рондо - "Золотая коллекция видео 1989-2006" | Скачать    Ребята, помогите собрать деньги на оплату серверов!!!

06-11-2014 22:16 Александр Иванов и группа Рондо - "Золотая коллекция видео 1989-2006" Скачать торрент  

Александр Иванов и группа Рондо - "Золотая коллекция видео 1989-2006"Год выпуска: 2006
Страна: Россия
Жанр: Рок
Продолжительность: 00:53:00
Перевод: Оригинал

В ролях: Александр Иванов и группа Рондо

Описание: Первый DVD Александра Иванова — "Золотая коллекция" лучших видео, сделанных в период с 1989 по 2006 годы, дополненный бонусным раритетным материалом, адресованный своим поклонникам и многочисленным почитателям творчества группы "Рондо".
Все клипы, представленные в "золотой коллекции" несомненно являются прекрасным и ценным подарком для всех любителей творчества певца и группы "Рондо".
01. Тоже является частью вселенной
02. Я буду помнить
03. Убей меня своей любовью
04. Ну и пусть
05. Она поверила в сказку
06. Боже, какой пустяк
07. Ночь
08. Я постелю тебе под ноги небо
09. Мотив последней песни
10. Моя неласковая Русь
11. Сумасшедшая девчонка
12. Мечты

Дополнительный материал:
Видеоклип "Мечты" (Питер)
Видеоклип "Мечты" (Мексика)
Видеоклип "Я возвращаюсь к тебе"
Качество: DVDRip
Формат: AVI
Видео кодек: XviD
Аудио кодек: AC3
Видео: Xvid 720x544, 25fps, 4637kbps
Аудио: Dolby AC3, 48000Hz, stereo, 192kbps





General
Complete name : E:\01 02 sicret2\rondo\01-chast_vselennoy.avi
Format : AVI
Format/Info : Audio Video Interleave
File size : 114 MiB
Duration : 3mn 16s
Overall bit rate : 4 837 Kbps
Writing application : VirtualDubMod 1.5.4.1 (build 2178/release)
Writing library : VirtualDubMod build 2178/release

Video
ID : 0
Format : MPEG-4 Visual
Format profile : Advanced Simple@L5
Format settings, BVOP : 1
Format settings, QPel : No
Format settings, GMC : No warppoints
Format settings, Matrix : Custom
Codec ID : XVID
Codec ID/Hint : XviD
Duration : 3mn 16s
Bit rate : 4 637 Kbps
Width : 720 pixels
Height : 544 pixels
Display aspect ratio : 4:3
Frame rate : 25.000 fps
Color space : YUV
Chroma subsampling : 4:2:0
Bit depth : 8 bits
Scan type : Progressive
Compression mode : Lossy
Bits/(Pixel*Frame) : 0.474
Stream size : 109 MiB (96%)
Writing library : XviD 1.2.0.dev47 (UTC 2006-11-01)

Audio
ID : 1
Format : AC-3
Format/Info : Audio Coding 3
Mode extension : CM (complete main)
Format settings, Endianness : Big
Codec ID : 2000
Duration : 3mn 16s
Bit rate mode : Constant
Bit rate : 192 Kbps
Channel(s) : 2 channels
Channel positions : Front: L R
Sampling rate : 48.0 KHz
Bit depth : 16 bits
Compression mode : Lossy
Delay relative to video : 24ms
Stream size : 4.50 MiB (4%)
Alignment : Split accross interleaves
Interleave, duration : 96 ms (2.40 video frames)
Interleave, preload duration : 96 ms

pb.wtf



Скачать Александр Иванов и группа Рондо - "Золотая коллекция видео 1989-2006" через торрент https://pic.kartinco.top/img/2014-11/07/tz1ime6i8pf1x1x4db7qbcm76.jpg Скачать, смотреть онлайн Александр Иванов и группа Рондо - "Золотая коллекция видео 1989-2006" [2006 г., Рок, DVDRip] бесплантно в хорошем качестве Описание: Первый DVD Александра Иванова — "Золотая коллекция" лучших видео, сделанных в период с 1989 по 2006 годы, дополненный бонусным ... 9.2 10 10
Info! Серебряная раздача, засчитывается только 50% скачанного.
Торрент: Зарегистрирован [2014-11-06 22:16] · скачан: 68 раз
Статус: √ проверено
Размер: 2.29 GB
Как cкачать? Как скачать Александр Иванов и группа Рондо - "Золотая коллекция видео 1989-2006" через торрент | UTorrent

28-11-2019 20:33  

Отключить всю рекламу на сайте

    Дорогой пользователь! Огромная просьба, поблагодарите релизера, оцените раздачу и оставьте свои комментарий, если Вы скачали Александр Иванов и группа Рондо - "Золотая коллекция видео 1989-2006" через торрент бесплатно!
    Комментировать посты могут только пользователи прошедшие не сложную регистрацию
    Показать сообщения:    

    Александр Иванов и группа Рондо - "Золотая коллекция видео 1989-2006" через торрент
    Скачать бесплатно Александр Иванов и группа Рондо - "Золотая коллекция видео 1989-2006"
    Александр Иванов и группа Рондо - "Золотая коллекция видео 1989-2006" скачать торрент
    Александр Иванов и группа Рондо - "Золотая коллекция видео 1989-2006" смотреть онлайн
    Cкачать фильм Александр Иванов и группа Рондо - "Золотая коллекция видео 1989-2006" бесплатно
    Александр Иванов и группа Рондо - "Золотая коллекция видео 1989-2006" скачать торрент в хорошем качестве
    Александр Иванов и группа Рондо - "Золотая коллекция видео 1989-2006" смотреть онлайн бесплатно в хорошем качестве


    Вы не можете начинать темы
    Вы не можете отвечать на сообщения
    Вы не можете редактировать свои сообщения
    Вы не можете удалять свои сообщения
    Вы не можете голосовать в опросах
    Вы не можете прикреплять файлы к сообщениям
    Вы можете скачивать файлы