2 сезон

iTunes

MVO

1

2 сезон

iTunes

iTunes

1 сезон

RePack

30

Новинка

ВАЖНО

ИГРА 18+

pack

RePack

MK11
pack

Легкие деньги

RePack

jed

RePack

fifa19

RePack

RDR2

RePack

NEED FOR SPEED™ PAYBACK

4 сезон

9 сезон

Бесстыжие 9 сезон

Все сериалы

все сериалы на PB.wtf

RePack

FAR CRY 5

Anonymous, добрый день, мы не успеваем собрать деньги на оплату серверов за декабрь и январь, помогите нам пожалуйста в это трудное время. В качестве благодарности мы отключим Вам всю рекламу на сайте (укажите свой ник в строку Ваше имя)!

×
  
Magnet ссылка

Дом добра и зла / House of Good and Evil (Дэвид Мун ) [2013, ужасы, триллер, HDRip, Профессиональный многоголосый] pb.wtf

Дом добра и зла через торрент pb.wtf

Размер: 1.46 GB | Добавлен: 6 лет 2 мес. назад | Торрент скачан:470 раз
Скачать  

07-11-2014 06:26 Дом добра и зла Скачать торрент  


Дом добра и зла / House of Good and Evil

«'Evil has a key.'»

Год выпуска: 2013
Страна:США
Жанр:ужасы, триллер
Продолжительность: 01:48:22
Перевод:Профессиональный многоголосый
Режиссер:Дэвид Мун
В ролях:

Рэйчел Мари Льюис (Maggie Conley), Кристиан Оливер (Chris Conley), Мэриетта Мэрич (Mrs. Anderson), Джордан Родс (Mr. Anderson), Роб Нюкирш (Rob Bradley), Бо Кейстер (Sheriff Hanituski), Blu de Golyer (Deputy Gardner), Jason Gallimore (CSI Tech), Синди Кейстер (Deputy), David Larsen (The Woodsman), Линда Мотли (Coroner), Melody Pogue (Deputy Coroner)
  • Описание:
    В отчаянной попытке спасти свой развалившийся брак, Крис и Мэгги покупают отдаленный дом в лесу, жизнь в котором быстро выявляет, что у зла есть свой ключ от их убежища.


    Качество:HDRip
    Формат:AVI
    Видео кодек: XviD
    Аудио кодек:AC3
    Видео: XviD, 720x304 (2.35:1), 1725 kbps, 23,976 fps, 0,329 bpp
    Аудио: AC3 / 2.0 / 48 kHz / 192 kbps / 16 bit

    Код:

    General
    Complete name                            : D:\Торенты\House of Good and Evil.2013.HDRip.avi
    Format                                   : AVI
    Format/Info                              : Audio Video Interleave
    File size                                : 1.46 GiB
    Duration                                 : 1h 48mn
    Overall bit rate                         : 1 927 Kbps
    Writing application                      : VirtualDubMod 1.5.10.2 (build 2540/release)
    Writing library                          : VirtualDubMod build 2540/release

    Video
    ID                                       : 0
    Format                                   : MPEG-4 Visual
    Format profile                           : Advanced Simple@L5
    Format settings, BVOP                    : 2
    Format settings, QPel                    : No
    Format settings, GMC                     : No warppoints
    Format settings, Matrix                  : Default (MPEG)
    Codec ID                                 : XVID
    Codec ID/Hint                            : XviD
    Duration                                 : 1h 48mn
    Bit rate                                 : 1 726 Kbps
    Width                                    : 720 pixels
    Height                                   : 304 pixels
    Display aspect ratio                     : 2.35:1
    Frame rate                               : 23.976 fps
    Color space                              : YUV
    Chroma subsampling                       : 4:2:0
    Bit depth                                : 8 bits
    Scan type                                : Progressive
    Compression mode                         : Lossy
    Bits/(Pixel*Frame)                       : 0.329
    Stream size                              : 1.31 GiB (90%)
    Writing library                          : XviD 1.2.1 (UTC 2008-12-04)

    Audio
    ID                                       : 1
    Format                                   : AC-3
    Format/Info                              : Audio Coding 3
    Mode extension                           : CM (complete main)
    Codec ID                                 : 2000
    Duration                                 : 1h 48mn
    Bit rate mode                            : Constant
    Bit rate                                 : 192 Kbps
    Channel(s)                               : 2 channels
    Channel positions                        : Front: L R
    Sampling rate                            : 48.0 KHz
    Bit depth                                : 16 bits
    Compression mode                         : Lossy
    Stream size                              : 149 MiB (10%)
    Alignment                                : Split accross interleaves
    Interleave, duration                     : 42 ms (1.00 video frame)
    Interleave, preload duration             : 500 ms


    Скриншоты:

    Срочно! Нужна помощь!


    © Оформление by Ravenpb.wtf



  • Скачать Дом добра и зла через торрент http://pic.kartinco.top/images/6/ordi9.jpg Скачать фильм Дом добра и зла через торрент бесплантно в хорошем качестве Описание:В отчаянной попытке спасти свой развалившийся брак, Крис и Мэгги покупают отдаленный дом в лесу, жизнь в котором быстро выявляет, ... 9.1 10 17
    Торрент: Зарегистрирован [2014-11-07 06:26] · скачан: 470 раз
    Статус: √ проверено
    Размер: 1.46 GB
    Как cкачать? Как скачать Дом добра и зла через торрент | UTorrent

    % Раздел Тема Автор DL S | L
    Фильмы [HD 720p, 1080p] (Хороший звук DUB, MVO) [ 6.71 GB ] Дом добра и зла / House of Good and Evil (2013 BDRip 720p] MVO Ворон Скачать
    1 | 0

    28-11-2019 20:33  

    Отключить всю рекламу на сайте

      Дорогой пользователь! Огромная просьба, поблагодарите релизера, оцените раздачу и оставьте свои комментарий, если Вы скачали Дом добра и зла через торрент бесплатно! Внесите свою лепту в развитие PiratBit!
      Комментировать посты могут только пользователи прошедшие не сложную регистрацию
      Показать сообщения:    

      Дом добра и зла через торрент
      Скачать бесплатно Дом добра и зла
      Дом добра и зла скачать торрент
      Дом добра и зла смотреть онлайн
      Cкачать фильм Дом добра и зла бесплатно
      Дом добра и зла скачать торрент в хорошем качестве
      Дом добра и зла смотреть онлайн бесплатно в хорошем качестве


      Вы не можете начинать темы
      Вы не можете отвечать на сообщения
      Вы не можете редактировать свои сообщения
      Вы не можете удалять свои сообщения
      Вы не можете голосовать в опросах
      Вы не можете прикреплять файлы к сообщениям
      Вы можете скачивать файлы