Ссылка на приватное зеркало всего за 1$. Внимание количество ограничено!!!

iTunes

iTunes

iTunes

1

iTunes

iTunes

iTunes

iTunes

iTunes

30
pack

$ от Little Big

ВАЖНО

!!Акция!!

Alien_RageХит недели

RePack

Resident Evil 21

ИГРА 18+

pack

RePack

jed

!!Акция!!

Alien_Rage

RePack

fifa19

RePack

Assassins Creed: Odyssey

RePack

NEED FOR SPEED™ PAYBACK

4 сезон

9 сезон

Бесстыжие 9 сезон

Все сериалы

все сериалы на PB.wtf

RePack

FAR CRY 5
  

Азбука смерти 2 / ABCs of Death 2 (Родни Ашер , Джулиан Бэррэтт , Rob Boocheck ) [2014, ужасы, комедия, WEB-DL 720p, Любительский (двухголосый)[den904, DeadSno] pb.wtf

Азбука смерти 2 через торрент pb.wtf

Размер: 3.97 GB | Добавлен: 5 лет 8 мес. назад | Торрент скачан:148 раз
Скачать  

07-11-2014 07:12 Азбука смерти 2 Скачать торрент  

Азбука смерти 2 / ABCs of Death 2


Год выпуска: 2014
Страна: США, Новая Зеландия, Канада, Израиль, Япония
Жанр:ужасы, комедия
Продолжительность:02:02:18
Перевод:Любительский (двухголосый)[den904, DeadSno] - по переводу [chup]
Субтитры: русские, английские,
Режиссер:Родни Ашер , Джулиан Бэррэтт , Rob Boocheck

  • В ролях:

    Мартина Гарсия, Беатрис Даль (Grandmother (segment 'X is for Xylophone')), Лоуренс Р. Харви (wanker (segment 'T' / 'Wanker')), Тристан Риск, Энди Найман, С. Эрнст Харт (Porn Guy #1 (segment 'T is for Torture Porn')), Алан МакКенна (Bob (segment Y)), Йен Вирго (Fletcher (segment)), Лорен Молина (Bride), Виктория Брум (Miriam (segment Y)), Мигель Анхель Муньос, Бенжамин Маккаби (Arnold the Muscle)

  • Описание:
    Приготовьтесь к продолжению убийств по алфавиту! 26 новых режиссёров и ещё 26 смертей на экране заставят вас трепетать от ужаса и обагрят ваши лица кровью.

  • Мировая премьера:18 сентября 2014

    Качество: WEB-DL 720p
    Формат:MKV
    Видео кодек: AVC
    Аудио кодек:AC3
    Видео: AVC, 1280x718 (16:9), 3787 kbps, 23,976 fps, 0,172 bpp
    Аудио №1: русский / AC3 / 5.1 / 48 kHz / 384 kbps / 16 bit ||
    Аудио №2: английский / AC3 / 5.1 / 48 kHz / 384 kbps / 16 bit
    Навигация по главам: есть


    Код:

    General
    Unique ID                                : 193414458597108790447951308031738141116 (0x9182450E4498A8B6B3504A87151659BC)
    Complete name                            : D:\Торенты\ABCs.of.Death.2.2014.WEB-DL.720p.CINEMANIA.mkv
    Format                                   : Matroska
    Format version                           : Version 4 / Version 2
    File size                                : 3.97 GiB
    Duration                                 : 2h 2mn
    Overall bit rate                         : 4 648 Kbps
    Movie name                               : Release Group CINEMANIA
    Encoded date                             : UTC 2014-11-07 01:14:19
    Writing application                      : mkvmerge v7.3.0 ('Nouages') 64bit built on Oct 22 2014 18:53:34
    Writing library                          : libebml v1.3.0 + libmatroska v1.4.1

    Video
    ID                                       : 1
    Format                                   : AVC
    Format/Info                              : Advanced Video Codec
    Format profile                           : High@L3.1
    Format settings, CABAC                   : No
    Format settings, ReFrames                : 2 frames
    Codec ID                                 : V_MPEG4/ISO/AVC
    Duration                                 : 2h 2mn
    Bit rate                                 : 3 787 Kbps
    Width                                    : 1 280 pixels
    Height                                   : 718 pixels
    Display aspect ratio                     : 16:9
    Frame rate                               : 23.976 fps
    Color space                              : YUV
    Chroma subsampling                       : 4:2:0
    Bit depth                                : 8 bits
    Scan type                                : Progressive
    Bits/(Pixel*Frame)                       : 0.172
    Stream size                              : 3.24 GiB (81%)
    Title                                    : Release Group CINEMANIA
    Language                                 : English
    Default                                  : Yes
    Forced                                   : No
    Color primaries                          : BT.709-5, BT.1361, IEC 61966-2-4, SMPTE RP177
    Transfer characteristics                 : BT.709-5, BT.1361
    Matrix coefficients                      : BT.709-5, BT.1361, IEC 61966-2-4 709, SMPTE RP177

    Audio #1
    ID                                       : 2
    Format                                   : AC-3
    Format/Info                              : Audio Coding 3
    Mode extension                           : CM (complete main)
    Codec ID                                 : A_AC3
    Duration                                 : 2h 2mn
    Bit rate mode                            : Constant
    Bit rate                                 : 384 Kbps
    Channel(s)                               : 6 channels
    Channel positions                        : Front: L C R, Side: L R, LFE
    Sampling rate                            : 48.0 KHz
    Bit depth                                : 16 bits
    Compression mode                         : Lossy
    Stream size                              : 336 MiB (8%)
    Title                                    : Влад и Снежинка
    Language                                 : Russian
    Default                                  : Yes
    Forced                                   : Yes

    Audio #2
    ID                                       : 3
    Format                                   : AC-3
    Format/Info                              : Audio Coding 3
    Mode extension                           : CM (complete main)
    Codec ID                                 : A_AC3
    Duration                                 : 2h 2mn
    Bit rate mode                            : Constant
    Bit rate                                 : 384 Kbps
    Channel(s)                               : 6 channels
    Channel positions                        : Front: L C R, Side: L R, LFE
    Sampling rate                            : 48.0 KHz
    Bit depth                                : 16 bits
    Compression mode                         : Lossy
    Stream size                              : 336 MiB (8%)
    Title                                    : ABCs.of.Death.2.2014.720p.WEB-DL.DD5.1.H264-RARBG
    Language                                 : English
    Default                                  : No
    Forced                                   : No

    Text #1
    ID                                       : 4
    Format                                   : UTF-8
    Codec ID                                 : S_TEXT/UTF8
    Codec ID/Info                            : UTF-8 Plain Text
    Language                                 : Russian
    Default                                  : Yes
    Forced                                   : Yes

    Text #2
    ID                                       : 5
    Format                                   : UTF-8
    Codec ID                                 : S_TEXT/UTF8
    Codec ID/Info                            : UTF-8 Plain Text
    Language                                 : English
    Default                                  : No
    Forced                                   : No

    Menu
    00:00:00.000                             : en:1
    00:07:06.000                             : en:2
    00:15:11.000                             : en:3
    00:19:43.000                             : en:4
    00:23:43.000                             : en:5
    00:29:41.000                             : en:6
    00:35:49.000                             : en:7
    00:44:34.000                             : en:8
    00:48:39.000                             : en:9
    00:54:34.000                             : en:10
    01:03:19.000                             : en:11
    01:10:50.000                             : en:12
    01:20:48.000                             : en:13
    01:31:45.000                             : en:14
    01:38:35.000                             : en:15
    01:43:27.000                             : en:16

    Скриншоты:

    Срочно! Нужна помощь!


    © Оформление by Ravenpb.wtf



  • Скачать Азбука смерти 2 через торрент http://i66.fastpic.ru/big/2014/1107/eb/40f09f552dd20647c03f20ec40f91beb.jpg Скачать фильм Азбука смерти 2 через торрент бесплантно в хорошем качестве Описание:Приготовьтесь к продолжению убийств по алфавиту! 26 новых режиссёров и ещё 26 смертей на экране заставят вас трепетать от ужаса и ... 8.7 10 6
    Торрент: Зарегистрирован [2014-11-07 07:12] · скачан: 148 раз
    Статус: T временная
    Размер: 3.97 GB
    Как cкачать? Как скачать Азбука смерти 2 через торрент | qTorrent

    % Раздел Тема Автор DL S | L
    T Фильмы [HD 720p, 1080p] (Хороший звук DUB, MVO) [ 5.77 GB ] Азбука смерти 2 / The ABCs of Death 2 [2014 BDRip 720p Любительский [den904 DeadSno] Ворон Скачать
    1 | 0
    T Фильмы 2014 (Звук TS, Cam, VO, DVO) [ 2.06 GB ] Азбука смерти 2 / The ABCs of Death 2 [2014 HDRip Любительский [den904 DeadSno] Ворон Скачать
    1 | 0
    T Фильмы 2014 (Звук TS, Cam, VO, DVO) [ 1.36 GB ] Азбука смерти 2 / ABCs of Death 2 [2014 WEB-DLRip Любительский [den904 DeadSno] Ворон Скачать
    1 | 0
    Арт-хаус и авторское кино [ 2.19 GB ] Азбука смерти / The ABCs of Death [2012 ВDRip] 2.19 Гб diletant Скачать
    1 | 0

    28-11-2019 20:33  

    Отключить всю рекламу на сайте

    07-11-2014 16:18 Азбука смерти 2 Скачать торрент  

    Первая часть, была гов..щем редкостным. Посмотрим на вторую.pb.wtf



    07-11-2014 20:47 Азбука смерти 2 Скачать торрент  

    ser38578399 писал(а):

    Первая часть, была гов..щем редкостным. Посмотрим на вторую.

    Не стоит тратить на это время =) И так все понятно.pb.wtf



    09-11-2014 05:10 Азбука смерти 2 Скачать торрент  

    Отличная была 1-я часть ! особенно эпизод с Фройлен! я думаю и 2-ю часть нужно посмотреть! :jest3:pb.wtf



    09-11-2014 06:24 Азбука смерти 2 Скачать торрент  

    Ме4татель, Судя по отзывам+рейтинг 1-я была провал.. Тут учли ошибки первой части и получилось выше среднего, любители жанра оценят.pb.wtf



      Дорогой пользователь! Огромная просьба, поблагодарите релизера, оцените раздачу и оставьте свои комментарий, если Вы скачали Азбука смерти 2 через торрент бесплатно! Внесите свою лепту в развитие PiratBit!
      Комментировать посты могут только пользователи прошедшие не сложную регистрацию
      Показать сообщения:    

      Азбука смерти 2 через торрент
      Скачать бесплатно Азбука смерти 2
      Азбука смерти 2 скачать торрент
      Азбука смерти 2 смотреть онлайн
      Cкачать фильм Азбука смерти 2 бесплатно
      Азбука смерти 2 скачать торрент в хорошем качестве
      Азбука смерти 2 смотреть онлайн бесплатно в хорошем качестве


      Вы не можете начинать темы
      Вы не можете отвечать на сообщения
      Вы не можете редактировать свои сообщения
      Вы не можете удалять свои сообщения
      Вы не можете голосовать в опросах
      Вы не можете прикреплять файлы к сообщениям
      Вы можете скачивать файлы