2 сезон

iTunes

1 сезон

1

iTunes

iTunes

iTunes

1 сезон

RePack

30

ИГРА 18+

pack

ВАЖНО

!!Акция!!

Alien_RageХит недели

RePack

MK11
pack

Забери бонус

RePack

jed

!!Акция!!

Alien_Rage

RePack

fifa19

RePack

Assassins Creed: Odyssey

RePack

NEED FOR SPEED™ PAYBACK

4 сезон

9 сезон

Бесстыжие 9 сезон

Все сериалы

все сериалы на PB.wtf

RePack

FAR CRY 5
  

Литейный 4 / Сезон: 8 / Серии 1-30 из 30 (Игорь Мужжухин, Андрей Щербинин, Станислав Мареев) [2014, Россия, боевик, криминал, детектив, SATRip) pb.wtf

Литейный 4 через торрент pb.wtf

Размер: 18 GB | Добавлен: 5 лет 11 мес. назад | Торрент скачан:146 раз
Скачать  

07-11-2014 09:18 Литейный 4 Скачать торрент  

Литейный 4 / Сезон 8
«Наши герои возвращаются...»


  • Год выпуска: 2014
  • Страна: Россия
  • Жанр: боевик, криминал, детектив
  • Продолжительность: 00:44:31 (Серия)
  • Перевод: Не требуется

  • Режиссер: Игорь Мужжухин, Андрей Щербинин, Станислав Мареев
  • В ролях:

    Андрей Федорцов (Ухов Андрей), Юрий Кузнецов (генерал Кузнецов), Анастасия Мельникова (Настя Мельникова), Сергей Селин (Сергей Селин), Светлана Крючкова, Алексей Нилов (Алексей Нилов), Вероника Дмитриева, Сергей Мурзин (Марат), Владимир Маслаков (Тимур), Алексей Федотов, Владимир Шумков (главврач), Сергей Лысов

  • Описание:
    В новом сезоне сериала «Литейный» зрители НТВ увидят хорошо знакомых сотрудников знаменитого спецотдела, созданного для расследования особо важных дел. Правда, на этот раз дружную команду, возглавляемую генералом Шаламовым, ожидает пополнение. Поначалу новичку – майору Богданову – не удается найти общий язык ни с полковником Селиным, ни с бывшим работником ФСБ подполковником Уховым, ни с компьютерным гением Грошевым, ни с майором Скворцовым, ни с адвокатом Ниловым, ни с психоаналитиком Мельниковой… Богданов раздражает всех! Хам, наглец, считающий себя во всем правым, он любого может поставить на место. Но в том, что касается непосредственно работы, всегда безупречен. Богданов бесстрашно подставляется под пули, закрывая собой коллег – он не боится никого и ничего. И постепенно становится своим в команде.
  • Рейтинг:



  • Качество: SATRip
  • Формат: :AVI
  • Видео кодек: XviD
  • Аудио кодек: MP3
  • Видео: 720x400 (16:9), 1799 kbps, 25 fps, 0,250 bpp
  • Аудио: 2.0 / 48 kHz / 128 kbps
  • Релиз от: GEKADOL

    Код:

    Внимание! Раздача ведётся путём добавления новых серий; при каждом добавлении создаётся новый торрент. Чтобы начать докачку новой серии, пользователям необходимо сделать следующее:
    (1) остановить скачивание,
    (2) удалить старый торрент у себя из клиента (старые серии удалять не надо),
    (3) скачать новый торрент и запустить его у себя в клиенте вместо старого, при этом указать клиенту путь в старую папку куда и должно происходить скачивание новых серий.
    Ваш клиент при этом должен произвести хеширование (проверку) старой папки (если не производит сам - помогите ему сделать это), и будет докачивать только те серии которых у вас ещё нет. Старые серии при этом не удаляются, а продолжают раздаваться!
    Eсли вы уже удалили старые серии, то предотвратить повторную закачку старых серий можно, отжав галочку в соответсвующих местах при запуске нового торрента. По возможности, желательно не удалять старые серии как можно дольше чтобы релизёр не столько продолжал раздавать старые серии, а смог сконцентрироваться на новых.


    Код:

    General
    Complete name                            : D:\Фильмы\Litejnyj.8.SATRip\Litejnyj.8.14.SATRip.avi
    Format                                   : AVI
    Format/Info                              : Audio Video Interleave
    File size                                : 617 MiB
    Duration                                 : 44mn 31s
    Overall bit rate                         : 1 938 Kbps
    Writing library                          : VirtualDub build 32817/release

    Video
    ID                                       : 0
    Format                                   : MPEG-4 Visual
    Format profile                           : Advanced Simple@L5
    Format settings, BVOP                    : 2
    Format settings, QPel                    : No
    Format settings, GMC                     : No warppoints
    Format settings, Matrix                  : Default (MPEG)
    Codec ID                                 : XVID
    Codec ID/Hint                            : XviD
    Duration                                 : 44mn 31s
    Bit rate                                 : 1 800 Kbps
    Width                                    : 720 pixels
    Height                                   : 400 pixels
    Display aspect ratio                     : 16:9
    Frame rate                               : 25.000 fps
    Color space                              : YUV
    Chroma subsampling                       : 4:2:0
    Bit depth                                : 8 bits
    Scan type                                : Progressive
    Compression mode                         : Lossy
    Bits/(Pixel*Frame)                       : 0.250
    Stream size                              : 573 MiB (93%)
    Writing library                          : XviD 1.2.1 (UTC 2008-12-04)

    Audio
    ID                                       : 1
    Format                                   : MPEG Audio
    Format version                           : Version 1
    Format profile                           : Layer 3
    Mode                                     : Joint stereo
    Mode extension                           : MS Stereo
    Codec ID                                 : 55
    Codec ID/Hint                            : MP3
    Duration                                 : 44mn 31s
    Bit rate mode                            : Constant
    Bit rate                                 : 128 Kbps
    Channel(s)                               : 2 channels
    Sampling rate                            : 48.0 KHz
    Compression mode                         : Lossy
    Stream size                              : 40.8 MiB (7%)
    Alignment                                : Split accross interleaves
    Interleave, duration                     : 40 ms (1.00 video frame)
    Interleave, preload duration             : 500 ms


    Скриншоты:
    скриншот   скриншот   скриншот   скриншот   скриншот  
    скриншот  

    Раздача ведётся путём добавления новых серий. Добавлена 30 серия (29.11.2014).Просьба перекачать торрент файл.

    pb.wtf



  • Скачать Литейный 4 через торрент http://i67.fastpic.ru/big/2014/1107/65/61d844b50435accb374c488651585765.jpg Скачать фильм Литейный 4 через торрент бесплантно в хорошем качестве Описание: В новом сезоне сериала «Литейный» зрители НТВ увидят хорошо знакомых сотрудников знаменитого спецотдела, созданного для ... 9.9 10 14
    Info! Золотая раздача, скачанное не засчитывается.
    Торрент: Зарегистрирован [2014-11-29 02:34] · скачан: 146 раз
    Статус: √ проверено
    Размер: 18 GB
    Как cкачать? Как скачать Литейный 4 через торрент | qTorrent



    Последний раз редактировалось: GEKADOL (2014-11-29 02:34), всего редактировалось 10 раз(а)

    28-11-2019 20:33  

    Отключить всю рекламу на сайте

    07-11-2014 13:14 Литейный 4 Скачать торрент  

    Скажите нужен или нет? pb.wtf



    07-11-2014 14:17 Литейный 4 Скачать торрент  

    этот сериал уже себя изжил-бездарный сюжетецpb.wtf



    24-11-2014 12:51 Литейный 4 Скачать торрент  

    fantomus писал(а):

    этот сериал уже себя изжил-бездарный сюжетец

    Посмотрим еще недельку и наверно бросим раз так много комментариев)pb.wtf



    26-02-2015 20:19 Литейный 4 Скачать торрент  

    а мне он строить и жить помогает...не плохой отдых после трудов тяжких ...немного оптимизма не помешает...он плох для тех кто с дивана не встает..pb.wtf



      Дорогой пользователь! Огромная просьба, поблагодарите релизера, оцените раздачу и оставьте свои комментарий, если Вы скачали Литейный 4 через торрент бесплатно! Внесите свою лепту в развитие PiratBit!
      Комментировать посты могут только пользователи прошедшие не сложную регистрацию
      Показать сообщения:    

      Литейный 4 через торрент
      Скачать бесплатно Литейный 4
      Литейный 4 скачать торрент
      Литейный 4 смотреть онлайн
      Cкачать фильм Литейный 4 бесплатно
      Литейный 4 скачать торрент в хорошем качестве
      Литейный 4 смотреть онлайн бесплатно в хорошем качестве


      Вы не можете начинать темы
      Вы не можете отвечать на сообщения
      Вы не можете редактировать свои сообщения
      Вы не можете удалять свои сообщения
      Вы не можете голосовать в опросах
      Вы не можете прикреплять файлы к сообщениям
      Вы можете скачивать файлы