2 сезон

iTunes

MVO

1

2 сезон

iTunes

iTunes

1 сезон

RePack

30

Ultimate

ВАЖНО

ИГРА 18+

pack

RePack

MK11
pack

Легкие деньги

RePack

jed

RePack

fifa19

RePack

RDR2

RePack

NEED FOR SPEED™ PAYBACK

4 сезон

9 сезон

Бесстыжие 9 сезон

Все сериалы

все сериалы на PB.wtf

RePack

FAR CRY 5

Anonymous, добрый день, мы не успеваем собрать деньги на оплату серверов за декабрь и январь, помогите нам пожалуйста в это трудное время. В качестве благодарности мы отключим Вам всю рекламу на сайте (укажите свой ник в строку Ваше имя)!

×
  
Magnet ссылка

Всё, что вы хотели знать о сексе и налогах / Spies & Glistrup (Кристоффер Боэ) [2013 г., драма, биография, HDRip, Профессиональный многоголосый, Лицензия] pb.wtf

Всё, что вы хотели знать о сексе и налогах через торрент pb.wtf

Размер: 1.46 GB | Добавлен: 6 лет 2 мес. назад | Торрент скачан:756 раз
Скачать  

08-11-2014 05:58 Всё, что вы хотели знать о сексе и налогах Скачать торрент  

Всё что вы хотели знать о сексе и налогах / Spies & Glistrup
Год выпуска: 2013
Страна: Дания
Жанр: драма, биография
Продолжительность: 01:55:06
Перевод: Профессиональный многоголосый, Лицензия

Режиссер: Кристоффер Боэ
Продюссер: Тине Грю Пфайфер, Кэролайн Шлутер, Рене Эзра
Сценарий: Кристоффер Боэ, Симон Пастернак
Премьера в мире: 29 августа 2013

IMDB 6.70 (827)


В ролях: Йохан Филип Асбек, Николас Бро, Еспер Кристенсен, Якоб Хёйлев Ёргенсон, Каспер Лайснер, Трине Паллесен, Фие Ореструп, Анна Агербак, Дитте Арнтх, Линда Авану

Описание: Первый — магнат-мультимиллиардер, второй — юрист, способный найти лазейку в любом контракте и правовом кодексе. Спис — плейбой, гедонист, либертин, принимавший журналистов в окружении обнаженных юниц и способный зайти в клетку с разъяренной гориллой без штанов, с эрегированным членом наперевес. Глиструп — одутловатый зануда, равнодушный к вечеринкам и всю долгую жизнь хранивший верность жене. С его помощью в 1965-м году Спис провернул грандиозную авантюрную сделку, став единственным владельцем турагентства и авиакомпании, демократизировавшей перелеты. Эта сделка положила начало и многолетней дружбе двух полярных созданий, чьи выходки провоцировали общество на протяжении трех десятилетий.

Качество: HDRip
Формат: AVI
Видео кодек: XviD
Аудио кодек: AC3
Видео: XviD, 1423 Кбит/с, 720x304, 24.000 fps
Аудио: АС3, 6 ch, 384 Кбит/с, 48.0 KHz

General
Complete name : /home/sb1855/files/O.sekse.i.nalogah.2013.P.HDRip.avi
Format : AVI
Format/Info : Audio Video Interleave
File size : 1.46 GiB
Duration : 1h 55mn
Overall bit rate : 1 817 Kbps
Writing application : VirtualDubMod 1.5.10.2 (build 2540/release)
Writing library : VirtualDubMod build 2540/release

Video
ID : 0
Format : MPEG-4 Visual
Format profile : Advanced Simple@L5
Format settings, BVOP : 2
Format settings, QPel : No
Format settings, GMC : No warppoints
Format settings, Matrix : Default (MPEG)
Codec ID : XVID
Codec ID/Hint : XviD
Duration : 1h 55mn
Bit rate : 1 423 Kbps
Width : 720 pixels
Height : 304 pixels
Display aspect ratio : 2.35:1
Frame rate : 24.000 fps
Color space : YUV
Chroma subsampling : 4:2:0
Bit depth : 8 bits
Scan type : Progressive
Compression mode : Lossy
Bits/(Pixel*Frame) : 0.271
Stream size : 1.14 GiB (78%)
Writing library : XviD 1.2.1 (UTC 2008-12-04)

Audio
ID : 1
Format : AC-3
Format/Info : Audio Coding 3
Mode extension : CM (complete main)
Format settings, Endianness : Big
Codec ID : 2000
Duration : 1h 55mn
Bit rate mode : Constant
Bit rate : 384 Kbps
Channel(s) : 6 channels
Channel positions : Front: L C R, Side: L R, LFE
Sampling rate : 48.0 KHz
Bit depth : 16 bits
Compression mode : Lossy
Stream size : 316 MiB (21%)
Alignment : Split accross interleaves
Interleave, duration : 42 ms (1.00 video frame)
Interleave, preload duration : 500 ms

скриншот   скриншот   скриншот  pb.wtf



Скачать Всё, что вы хотели знать о сексе и налогах через торрент http://pic.kartinco.top/img/2014-11/08/48esmbwr60xjr94ioxk5xoy2f.jpg Скачать фильм Всё, что вы хотели знать о сексе и налогах через торрент бесплантно в хорошем качестве Описание: Первый — магнат-мультимиллиардер, второй — юрист, способный найти лазейку в любом контракте и правовом кодексе. Спис — плейбой, ... 9.6 10 25
Торрент: Зарегистрирован [2014-11-08 05:58] · скачан: 756 раз
Статус: √ проверено
Размер: 1.46 GB
Как cкачать? Как скачать Всё, что вы хотели знать о сексе и налогах через торрент | UTorrent

28-11-2019 20:33  

Отключить всю рекламу на сайте

08-11-2014 21:44 Всё, что вы хотели знать о сексе и налогах Скачать торрент  

Хотя бы ради второго скрина стоит заценить =)pb.wtf



    Дорогой пользователь! Огромная просьба, поблагодарите релизера, оцените раздачу и оставьте свои комментарий, если Вы скачали Всё, что вы хотели знать о сексе и налогах через торрент бесплатно! Внесите свою лепту в развитие PiratBit!
    Комментировать посты могут только пользователи прошедшие не сложную регистрацию
    Показать сообщения:    

    Всё, что вы хотели знать о сексе и налогах через торрент
    Скачать бесплатно Всё, что вы хотели знать о сексе и налогах
    Всё, что вы хотели знать о сексе и налогах скачать торрент
    Всё, что вы хотели знать о сексе и налогах смотреть онлайн
    Cкачать фильм Всё, что вы хотели знать о сексе и налогах бесплатно
    Всё, что вы хотели знать о сексе и налогах скачать торрент в хорошем качестве
    Всё, что вы хотели знать о сексе и налогах смотреть онлайн бесплатно в хорошем качестве


    Вы не можете начинать темы
    Вы не можете отвечать на сообщения
    Вы не можете редактировать свои сообщения
    Вы не можете удалять свои сообщения
    Вы не можете голосовать в опросах
    Вы не можете прикреплять файлы к сообщениям
    Вы можете скачивать файлы