Ссылка на приватное зеркало нашего сайта всего за 1$. Внимание количество ограничено!!!

2 сезон

iTunes

1 сезон

1

2 сезон

2 сезон

iTunes

1 сезон

RePack

30

Новинка

ВАЖНО

ИГРА 18+

pack

RePack

MK11
pack

Забери бонус

RePack

jed

!!Акция!!

Alien_Rage

RePack

fifa19

RePack

Assassins Creed: Odyssey

RePack

NEED FOR SPEED™ PAYBACK

4 сезон

9 сезон

Бесстыжие 9 сезон

Все сериалы

все сериалы на PB.wtf

RePack

FAR CRY 5
  

Кошмар на улице Вязов: Антология / A Nightmare on Elm Street: Antology [1984-2010, США, ужасы, BDRip 1080p / 60 FPS, Профессиональный многоголосый,Дубляж] pb.wtf

Кошмар на улице Вязов: Антология через торрент pb.wtf

Качают: 1 [ 0 KB/s ]
Размер: 96.61 GB | Добавлен: 6 лет назад | Торрент скачан:139 раз
Скачать  

08-11-2014 09:55 Кошмар на улице Вязов: Антология Скачать торрент  


Название: Кошмар на улице Вязов
Оригинальное название: A Nightmare on Elm Street
Год выпуска: 1984
Страна: США
Жанр: ужасы
Продолжительность: 01:31:27
Перевод: Профессиональный многоголосый
Субтитры: русские (Полные), английские (Полные)
Режиссер: Уэс Крэйвен / Wes Craven
В ролях: Джон Сэксон (Lt. Donald Thompson), Рони Блейкли (Marge Thompson), Хэзер Лэнгенкэмп (Nancy Thompson), Аманда Уайсс (Christina «Tina» Gray), Хсу Гарсиа (Rod Lane), Джонни Депп (Glen Lantz), Чарльз Флайшер (Dr. King), Джозеф Випп (Sgt. Parker), Роберт Инглунд (Fred Krueger), Лин Шэй (Teacher), Джо Ангер (Sgt. Garcia), Мими Крэйвен (Nurse)
Описание:
Старшеклассников одной из школ Спрингвуда преследует один и тот же кошмарный сон, в котором за ними гонится и кромсает на куски изуродованный человек в шляпе и с ножами на своей перчатке. И тот, кого убили во сне, - умирает в реальности... Оказывается, много лет назад герой сна Фредди Крюгер был маньяком, совершившим несколько зверских убийств детей. Их родители, не дожидаясь суда, линчевали Фредди, спалив заживо в котельной. И теперь Фредди пришел отомстить...
Рейтинг
kinopoisk.ru: 7.617 (42 941)
imdb.com: 7.50 (119 546)
MPAA: R - Лицам до 17 лет обязательно присутствие взрослого
Автор рипа:Tiberiumsun69

Качество: BDRip 1080p / 60 FPS
Формат: MKV
Видео кодек: AVC
Аудио кодек:AC3
Видео: AVC, 1920x1080 (16:9), 14000 kbps, 59,940 fps, 0,113 bpp
Аудио №1: русский / AC3 / 2.0 / 48 kHz / 192 kbps / 16 bit |Многоголосый, закадровый НТВ|
Аудио №2: русский / AC3 / 5.1 / 48 kHz / 640 kbps / 16 bit |Многоголосый, закадровый Позитив|
Аудио №3: русский / AC3 / 5.1 / 48 kHz / 640 kbps / 16 bit |Многоголосый, закадровый Киномания|
Аудио №4: русский / AC3 / 5.1 / 48 kHz / 640 kbps / 16 bit |Многоголосый, закадровый CP Digital|
Аудио №5: английский / AC3 / 5.1 / 48 kHz / 640 kbps / 16 bit
Навигация по главам: есть

General
Unique ID : 216808248110274436808931415283340573873 (0xA31BBFEDD1859D0C8FF421CB6C027CB1)
Complete name : A:\1080p 60fps\Кошмар на улице Вязов 1080p 60fps\Кошмар на улице Вязов 1 1080p 60fps.mkv
Format : Matroska
Format version : Version 4 / Version 2
File size : 10.7 GiB
Duration : 1h 31mn
Overall bit rate : 16.8 Mbps
Movie name : R.G HD-Films by Tiberiumsun69 60fps
Encoded date : UTC 2014-11-07 14:51:58
Writing application : mkvmerge v6.9.1 ('Blue Panther') 64bit built on Apr 18 2014 18:23:38
Writing library : libebml v1.3.0 + libmatroska v1.4.1
Attachment : Yes

Video
ID : 1
Format : AVC
Format/Info : Advanced Video Codec
Format profile : High@L4.1
Format settings, CABAC : Yes
Format settings, ReFrames : 4 frames
Codec ID : V_MPEG4/ISO/AVC
Duration : 1h 31mn
Bit rate : 14.0 Mbps
Width : 1 920 pixels
Height : 1 080 pixels
Display aspect ratio : 16:9
Frame rate : 59.940 fps
Color space : YUV
Chroma subsampling : 4:2:0
Bit depth : 8 bits
Scan type : Progressive
Bits/(Pixel*Frame) : 0.113
Stream size : 8.73 GiB (82%)
Title : R.G HD-Films by Tiberiumsun69 60fps
Writing library : x264 core 130 r2273 b3065e6
Encoding settings : cabac=1 / ref=4 / deblock=1:-1:-1 / analyse=0x3:0 / me=umh / subme=9 / psy=1 / psy_rd=1.00:0.00 / mixed_ref=1 / me_range=44 / chroma_me=0 / trellis=2 / 8x8dct=1 / cqm=0 / deadzone=21,11 / fast_pskip=0 / chroma_qp_offset=-2 / threads=12 / lookahead_threads=1 / sliced_threads=0 / nr=0 / decimate=0 / interlaced=0 / bluray_compat=0 / constrained_intra=0 / bframes=5 / b_pyramid=2 / b_adapt=2 / b_bias=0 / direct=3 / weightb=1 / open_gop=0 / weightp=2 / keyint=250 / keyint_min=59 / scenecut=40 / intra_refresh=0 / rc_lookahead=60 / rc=2pass / mbtree=1 / bitrate=14000 / ratetol=1.0 / qcomp=0.80 / qpmin=0 / qpmax=69 / qpstep=4 / cplxblur=20.0 / qblur=0.5 / ip_ratio=1.40 / aq=1:0.80
Language : English
Default : Yes
Forced : No

Audio #1
ID : 2
Format : AC-3
Format/Info : Audio Coding 3
Mode extension : CM (complete main)
Codec ID : A_AC3
Duration : 1h 31mn
Bit rate mode : Constant
Bit rate : 192 Kbps
Channel(s) : 2 channels
Channel positions : Front: L R
Sampling rate : 48.0 KHz
Bit depth : 16 bits
Compression mode : Lossy
Stream size : 126 MiB (1%)
Title : Многоголосый, закадровый НТВ
Language : Russian
Default : Yes
Forced : No

Audio #2
ID : 3
Format : AC-3
Format/Info : Audio Coding 3
Mode extension : CM (complete main)
Codec ID : A_AC3
Duration : 1h 31mn
Bit rate mode : Constant
Bit rate : 640 Kbps
Channel(s) : 6 channels
Channel positions : Front: L C R, Side: L R, LFE
Sampling rate : 48.0 KHz
Bit depth : 16 bits
Compression mode : Lossy
Stream size : 419 MiB (4%)
Title : Многоголосый, закадровый Позитив
Language : Russian
Default : No
Forced : No

Audio #3
ID : 4
Format : AC-3
Format/Info : Audio Coding 3
Mode extension : CM (complete main)
Codec ID : A_AC3
Duration : 1h 31mn
Bit rate mode : Constant
Bit rate : 640 Kbps
Channel(s) : 6 channels
Channel positions : Front: L C R, Side: L R, LFE
Sampling rate : 48.0 KHz
Bit depth : 16 bits
Compression mode : Lossy
Stream size : 419 MiB (4%)
Title : Многоголосый, закадровый Киномания
Language : Russian
Default : No
Forced : No

Audio #4
ID : 5
Format : AC-3
Format/Info : Audio Coding 3
Mode extension : CM (complete main)
Codec ID : A_AC3
Duration : 1h 31mn
Bit rate mode : Constant
Bit rate : 640 Kbps
Channel(s) : 6 channels
Channel positions : Front: L C R, Side: L R, LFE
Sampling rate : 48.0 KHz
Bit depth : 16 bits
Compression mode : Lossy
Stream size : 419 MiB (4%)
Title : Многоголосый, закадровый CP Digital
Language : Russian
Default : No
Forced : No

Audio #5
ID : 6
Format : AC-3
Format/Info : Audio Coding 3
Mode extension : CM (complete main)
Codec ID : A_AC3
Duration : 1h 31mn
Bit rate mode : Constant
Bit rate : 640 Kbps
Channel(s) : 6 channels
Channel positions : Front: L C R, Side: L R, LFE
Sampling rate : 48.0 KHz
Bit depth : 16 bits
Compression mode : Lossy
Stream size : 419 MiB (4%)
Title : Оригинал
Language : English
Default : No
Forced : No

Text #1
ID : 7
Format : UTF-8
Codec ID : S_TEXT/UTF8
Codec ID/Info : UTF-8 Plain Text
Title : Полные
Language : Russian
Default : No
Forced : No

Text #2
ID : 8
Format : UTF-8
Codec ID : S_TEXT/UTF8
Codec ID/Info : UTF-8 Plain Text
Title : Полные
Language : English
Default : No
Forced : No

Menu
00:00:00.000 : 00:00:00.000
00:03:48.590 : 00:03:48.590
00:06:04.434 : 00:06:04.434
00:08:23.990 : 00:08:23.990
00:10:57.018 : 00:10:57.018
00:15:01.054 : 00:15:01.054
00:18:39.689 : 00:18:39.689
00:20:40.643 : 00:20:40.643
00:23:19.343 : 00:23:19.343
00:29:40.432 : 00:29:40.432
00:31:52.856 : 00:31:52.856
00:34:35.894 : 00:34:35.894
00:37:16.388 : 00:37:16.388
00:43:26.424 : 00:43:26.424
00:47:41.971 : 00:47:41.971
00:51:42.712 : 00:51:42.712
00:56:32.543 : 00:56:32.543
00:59:04.528 : 00:59:04.528
01:03:12.693 : 01:03:12.693
01:08:15.370 : 01:08:15.370
01:12:02.514 : 01:12:02.514
01:15:47.655 : 01:15:47.655
01:21:17.693 : 01:21:17.693
01:25:39.038 : 01:25:39.038
01:29:19.591 : 01:29:19.591

Название: Кошмар на улице Вязов 2: Месть Фредди
Оригинальное название: A Nightmare on Elm Street Part 2: Freddy's Revenge
Год выпуска: 1985
Страна: США
Жанр: ужасы
Продолжительность: 01:25:50
Перевод: Профессиональный многоголосый
Субтитры: русские (Полные), английские (Полные)
Режиссер: Джек Шолдер / Jack Sholder
В ролях: Марк Паттон (Jesse Walsh), Ким Майерс (Lisa Webber), Роберт Раслер (Ron Grady), Клу Гулагер (Ken Walsh), Хоуп Лэнг (Cheryl Walsh), Роберт Инглунд (Freddy Krueger), Маршалл Белл (Coach Schneider), Мелинда О. Фи (Mrs. Webber), Том МакФедден (Mr. Webber), Сидни Уолш (Kerry), Эдвард Блэкофф (Biology Teacher), Кристи Кларк (Angela Walsh)
Описание:
Спустя пять лет в дом, где подростков преследовали кошмары с кровавым убийцей, въезжает новая семья, ничего не подозревающая о дурной славе этого коттеджа. Фрэдди Крюгер вновь возникает в снах юного Джесси Уэлма и пытается завладеть не только его мозгом, но и телом. Подружка Джесси, Лиза, надеется помочь ему избавиться от навязчивого видения. Замечательные спецэффекты и пиротехника обеспечили фильму кассовый успех.
Рейтинг
kinopoisk.ru: 6.546 (9459)
imdb.com: 5.30 (34 449)
MPAA: R - Лицам до 17 лет обязательно присутствие взрослого
Автор рипа:Tiberiumsun69

Качество: BDRip 1080p / 60 FPS
Формат: MKV
Видео кодек: AVC
Аудио кодек:AC3
Видео: AVC, 1920x1080 (16:9), 14000 kbps, 59,940 fps, 0,113 bpp
Аудио №1: русский / AC3 / 2.0 / 48 kHz / 192 kbps / 16 bit |Многоголосый, закадровый НТВ|
Аудио №2: русский / AC3 / 5.1 / 48 kHz / 640 kbps / 16 bit |Многоголосый, закадровый Позитив|
Аудио №3: русский / AC3 / 5.1 / 48 kHz / 640 kbps / 16 bit |Многоголосый, закадровый Киномания|
Аудио №4: русский / AC3 / 5.1 / 48 kHz / 640 kbps / 16 bit |Многоголосый, закадровый CP Digital|
Аудио №5: английский / AC3 / 5.1 / 48 kHz / 640 kbps / 16 bit
Навигация по главам: есть

General
Unique ID : 208450614757597222742150648493356413975 (0x9CD220CA6CC4760EBAE272FBE40CF417)
Complete name : A:\1080p 60fps\Кошмар на улице Вязов 1080p 60fps\Кошмар на улице Вязов 2 Месть Фредди 1080p 60fps.mkv
Format : Matroska
Format version : Version 4 / Version 2
File size : 10.0 GiB
Duration : 1h 25mn
Overall bit rate : 16.7 Mbps
Movie name : R.G. HD-Films by Tiberiumsun69 60fps
Encoded date : UTC 2014-11-07 15:40:23
Writing application : mkvmerge v6.9.1 ('Blue Panther') 64bit built on Apr 18 2014 18:23:38
Writing library : libebml v1.3.0 + libmatroska v1.4.1
Attachements : Cover.png / Cover.png

Video
ID : 1
Format : AVC
Format/Info : Advanced Video Codec
Format profile : High@L4.1
Format settings, CABAC : Yes
Format settings, ReFrames : 4 frames
Codec ID : V_MPEG4/ISO/AVC
Duration : 1h 25mn
Bit rate : 14.0 Mbps
Width : 1 920 pixels
Height : 1 080 pixels
Display aspect ratio : 16:9
Frame rate mode : Constant
Frame rate : 59.880 fps
Original frame rate : 59.940 fps
Color space : YUV
Chroma subsampling : 4:2:0
Bit depth : 8 bits
Scan type : Progressive
Bits/(Pixel*Frame) : 0.113
Stream size : 8.19 GiB (82%)
Title : R.G. HD-Films by Tiberiumsun69 60fps
Writing library : x264 core 130 r2273 b3065e6
Encoding settings : cabac=1 / ref=4 / deblock=1:-1:-1 / analyse=0x3:0 / me=umh / subme=9 / psy=1 / psy_rd=1.00:0.00 / mixed_ref=1 / me_range=44 / chroma_me=0 / trellis=2 / 8x8dct=1 / cqm=0 / deadzone=21,11 / fast_pskip=0 / chroma_qp_offset=-2 / threads=12 / lookahead_threads=1 / sliced_threads=0 / nr=0 / decimate=0 / interlaced=0 / bluray_compat=0 / constrained_intra=0 / bframes=5 / b_pyramid=2 / b_adapt=2 / b_bias=0 / direct=3 / weightb=1 / open_gop=0 / weightp=2 / keyint=250 / keyint_min=59 / scenecut=40 / intra_refresh=0 / rc_lookahead=60 / rc=2pass / mbtree=1 / bitrate=14000 / ratetol=1.0 / qcomp=0.80 / qpmin=0 / qpmax=69 / qpstep=4 / cplxblur=20.0 / qblur=0.5 / ip_ratio=1.40 / aq=1:0.80
Language : English
Default : Yes
Forced : No

Audio #1
ID : 2
Format : AC-3
Format/Info : Audio Coding 3
Mode extension : CM (complete main)
Format settings, Endianness : Big
Codec ID : A_AC3
Duration : 1h 25mn
Bit rate mode : Constant
Bit rate : 192 Kbps
Channel(s) : 2 channels
Channel positions : Front: L R
Sampling rate : 48.0 KHz
Bit depth : 16 bits
Compression mode : Lossy
Stream size : 118 MiB (1%)
Title : Многоголосый, закадровый НТВ
Language : Russian
Default : Yes
Forced : No

Audio #2
ID : 3
Format : AC-3
Format/Info : Audio Coding 3
Mode extension : CM (complete main)
Format settings, Endianness : Big
Codec ID : A_AC3
Duration : 1h 25mn
Bit rate mode : Constant
Bit rate : 640 Kbps
Channel(s) : 6 channels
Channel positions : Front: L C R, Side: L R, LFE
Sampling rate : 48.0 KHz
Bit depth : 16 bits
Compression mode : Lossy
Stream size : 393 MiB (4%)
Title : Многоголосый, закадровый Позитив
Language : Russian
Default : No
Forced : No

Audio #3
ID : 4
Format : AC-3
Format/Info : Audio Coding 3
Mode extension : CM (complete main)
Format settings, Endianness : Big
Codec ID : A_AC3
Duration : 1h 25mn
Bit rate mode : Constant
Bit rate : 640 Kbps
Channel(s) : 6 channels
Channel positions : Front: L C R, Side: L R, LFE
Sampling rate : 48.0 KHz
Bit depth : 16 bits
Compression mode : Lossy
Stream size : 393 MiB (4%)
Title : Многоголосый, закадровый Киномания
Language : Russian
Default : No
Forced : No

Audio #4
ID : 5
Format : AC-3
Format/Info : Audio Coding 3
Mode extension : CM (complete main)
Format settings, Endianness : Big
Codec ID : A_AC3
Duration : 1h 25mn
Bit rate mode : Constant
Bit rate : 640 Kbps
Channel(s) : 6 channels
Channel positions : Front: L C R, Side: L R, LFE
Sampling rate : 48.0 KHz
Bit depth : 16 bits
Compression mode : Lossy
Stream size : 393 MiB (4%)
Title : Многоголосый, закадровый CP Digital
Language : Russian
Default : No
Forced : No

Audio #5
ID : 6
Format : AC-3
Format/Info : Audio Coding 3
Mode extension : CM (complete main)
Format settings, Endianness : Big
Codec ID : A_AC3
Duration : 1h 25mn
Bit rate mode : Constant
Bit rate : 640 Kbps
Channel(s) : 6 channels
Channel positions : Front: L C R, Side: L R, LFE
Sampling rate : 48.0 KHz
Bit depth : 16 bits
Compression mode : Lossy
Stream size : 393 MiB (4%)
Title : Оригинал
Language : English
Default : No
Forced : No

Text #1
ID : 7
Format : UTF-8
Codec ID : S_TEXT/UTF8
Codec ID/Info : UTF-8 Plain Text
Title : Полные
Language : Russian
Default : No
Forced : No

Text #2
ID : 8
Format : UTF-8
Codec ID : S_TEXT/UTF8
Codec ID/Info : UTF-8 Plain Text
Title : Полные
Language : English
Default : No
Forced : No

Menu
00:00:00.000 : 00:00:00.000
00:06:55.777 : 00:06:55.777
00:08:43.260 : 00:08:43.260
00:12:16.932 : 00:12:16.932
00:16:14.836 : 00:16:14.836
00:18:15.415 : 00:18:15.415
00:23:15.673 : 00:23:15.673
00:26:38.751 : 00:26:38.751
00:28:11.260 : 00:28:11.260
00:30:53.505 : 00:30:53.505
00:33:24.489 : 00:33:24.489
00:37:40.454 : 00:37:40.454
00:40:14.441 : 00:40:14.441
00:43:12.619 : 00:43:12.619
00:46:20.390 : 00:46:20.390
00:49:22.572 : 00:49:22.572
00:54:16.532 : 00:54:16.532
00:57:46.450 : 00:57:46.450
01:01:43.520 : 01:01:43.520
01:04:34.733 : 01:04:34.733
01:08:20.667 : 01:08:20.667
01:11:28.605 : 01:11:28.605
01:15:10.576 : 01:15:10.576
01:17:43.145 : 01:17:43.145
01:20:45.411 : 01:20:45.411
01:23:02.965 : 01:23:02.965

Название: Кошмар на улице Вязов 3: Воины сна
Оригинальное название: A Nightmare on Elm Street 3: Dream Warriors
Год выпуска: 1987
Страна: США
Жанр: ужасы, триллер
Продолжительность: 01:36:44
Перевод: Профессиональный многоголосый
Субтитры: русские (Полные), английские (Полные)
Режиссер: Чак Рассел / Chuck Russell
В ролях: Хэзер Лэнгенкэмп (Nancy Thompson), Крейг Уоссон (Neil Gordon), Патриция Аркетт (Kristen Parker), Роберт Инглунд (Freddy Krueger), Кен Сэйгоз (Kincaid), Родни Истман (Joey), Дженнифер Рубин (Taryn), Брэдли Грегг (Phillip), Айра Хейден (Will), Лоренс Фишбёрн (Max), Пенелопа Судроу (Jennifer), Джон Сэксон (Thompson)
Описание:
События происходят через шесть лет после первого появления Фредди Крюгера. Он стал намного сильнее, подпитываясь душами детей с улицы Вязов. Теперь он обратил внимание на семерых детишек, заключенных в психиатрической лечебнице.
Положение усугубляется повальными «самоубийствами», которые, разумеется, являются проделками Фредди. Разрешить ситуацию и объяснить что происходит может лишь Нэнси Томпсон, которая вернулась в родной город в качестве врача-практиканта...
Рейтинг
kinopoisk.ru: 7.191 (11 033)
imdb.com: 6.50 (39 454)
MPAA: R - Лицам до 17 лет обязательно присутствие взрослого
Автор рипа:Tiberiumsun69

Качество: BDRip 1080p / 60 FPS
Формат: MKV
Видео кодек: AVC
Аудио кодек:AC3
Видео: AVC, 1920x1080 (16:9), 14000 kbps, 59,940 fps, 0,113 bpp
Аудио №1: русский / AC3 / 2.0 / 48 kHz / 192 kbps / 16 bit |Многоголосый, закадровый НТВ|
Аудио №2: русский / AC3 / 5.1 / 48 kHz / 640 kbps / 16 bit |Многоголосый, закадровый Позитив|
Аудио №3: русский / AC3 / 5.1 / 48 kHz / 640 kbps / 16 bit |Многоголосый, закадровый Киномания|
Аудио №4: русский / AC3 / 2.0 / 48 kHz / 192 kbps / 16 bit |Многоголосый, закадровый CP Digital|
Аудио №5: английский / AC3 / 5.1 / 48 kHz / 640 kbps / 16 bit
Навигация по главам: есть

General
Unique ID : 245599147052977116883422887333347952093 (0xB8C4ACD77396BBB3B2DD509893A385DD)
Complete name : A:\1080p 60fps\Кошмар на улице Вязов 1080p 60fps\Кошмар на улице Вязов 3 Воины сна 1080p 60fps.mkv
Format : Matroska
Format version : Version 4 / Version 2
File size : 11.0 GiB
Duration : 1h 36mn
Overall bit rate : 16.3 Mbps
Movie name : R.G. HD-Films by Tiberiumsun69 60fps
Encoded date : UTC 2014-11-07 16:18:59
Writing application : mkvmerge v6.9.1 ('Blue Panther') 64bit built on Apr 18 2014 18:23:38
Writing library : libebml v1.3.0 + libmatroska v1.4.1
Attachment : Yes

Video
ID : 1
Format : AVC
Format/Info : Advanced Video Codec
Format profile : High@L4.1
Format settings, CABAC : Yes
Format settings, ReFrames : 4 frames
Codec ID : V_MPEG4/ISO/AVC
Duration : 1h 36mn
Bit rate : 14.0 Mbps
Width : 1 920 pixels
Height : 1 080 pixels
Display aspect ratio : 16:9
Frame rate : 59.940 fps
Color space : YUV
Chroma subsampling : 4:2:0
Bit depth : 8 bits
Scan type : Progressive
Bits/(Pixel*Frame) : 0.113
Stream size : 9.24 GiB (84%)
Title : R.G. HD-Films by Tiberiumsun69 60fps
Writing library : x264 core 130 r2273 b3065e6
Encoding settings : cabac=1 / ref=4 / deblock=1:-1:-1 / analyse=0x3:0 / me=umh / subme=9 / psy=1 / psy_rd=1.00:0.00 / mixed_ref=1 / me_range=44 / chroma_me=0 / trellis=2 / 8x8dct=1 / cqm=0 / deadzone=21,11 / fast_pskip=0 / chroma_qp_offset=-2 / threads=12 / lookahead_threads=1 / sliced_threads=0 / nr=0 / decimate=0 / interlaced=0 / bluray_compat=0 / constrained_intra=0 / bframes=5 / b_pyramid=2 / b_adapt=2 / b_bias=0 / direct=3 / weightb=1 / open_gop=0 / weightp=2 / keyint=250 / keyint_min=59 / scenecut=40 / intra_refresh=0 / rc_lookahead=60 / rc=2pass / mbtree=1 / bitrate=14000 / ratetol=1.0 / qcomp=0.80 / qpmin=0 / qpmax=69 / qpstep=4 / cplxblur=20.0 / qblur=0.5 / ip_ratio=1.40 / aq=1:0.80
Language : English
Default : Yes
Forced : No

Audio #1
ID : 2
Format : AC-3
Format/Info : Audio Coding 3
Mode extension : CM (complete main)
Codec ID : A_AC3
Duration : 1h 36mn
Bit rate mode : Constant
Bit rate : 192 Kbps
Channel(s) : 2 channels
Channel positions : Front: L R
Sampling rate : 48.0 KHz
Bit depth : 16 bits
Compression mode : Lossy
Stream size : 133 MiB (1%)
Title : Многоголосый, закадровый НТВ
Language : Russian
Default : Yes
Forced : No

Audio #2
ID : 3
Format : AC-3
Format/Info : Audio Coding 3
Mode extension : CM (complete main)
Codec ID : A_AC3
Duration : 1h 36mn
Bit rate mode : Constant
Bit rate : 640 Kbps
Channel(s) : 6 channels
Channel positions : Front: L C R, Side: L R, LFE
Sampling rate : 48.0 KHz
Bit depth : 16 bits
Compression mode : Lossy
Stream size : 443 MiB (4%)
Title : Многоголосый, закадровый Позитив
Language : Russian
Default : No
Forced : No

Audio #3
ID : 4
Format : AC-3
Format/Info : Audio Coding 3
Mode extension : CM (complete main)
Codec ID : A_AC3
Duration : 1h 36mn
Bit rate mode : Constant
Bit rate : 640 Kbps
Channel(s) : 6 channels
Channel positions : Front: L C R, Side: L R, LFE
Sampling rate : 48.0 KHz
Bit depth : 16 bits
Compression mode : Lossy
Stream size : 443 MiB (4%)
Title : Многоголосый, закадровый Киномания
Language : Russian
Default : No
Forced : No

Audio #4
ID : 5
Format : AC-3
Format/Info : Audio Coding 3
Mode extension : CM (complete main)
Codec ID : A_AC3
Duration : 1h 36mn
Bit rate mode : Constant
Bit rate : 192 Kbps
Channel(s) : 2 channels
Channel positions : Front: L R
Sampling rate : 48.0 KHz
Bit depth : 16 bits
Compression mode : Lossy
Stream size : 133 MiB (1%)
Title : Многоголосый, закадровый CP Digital
Language : Russian
Default : No
Forced : No

Audio #5
ID : 6
Format : AC-3
Format/Info : Audio Coding 3
Mode extension : CM (complete main)
Codec ID : A_AC3
Duration : 1h 36mn
Bit rate mode : Constant
Bit rate : 640 Kbps
Channel(s) : 6 channels
Channel positions : Front: L C R, Side: L R, LFE
Sampling rate : 48.0 KHz
Bit depth : 16 bits
Compression mode : Lossy
Stream size : 443 MiB (4%)
Title : Оригинал
Language : English
Default : No
Forced : No

Text #1
ID : 7
Format : UTF-8
Codec ID : S_TEXT/UTF8
Codec ID/Info : UTF-8 Plain Text
Title : Полные
Language : Russian
Default : No
Forced : No

Text #2
ID : 8
Format : UTF-8
Codec ID : S_TEXT/UTF8
Codec ID/Info : UTF-8 Plain Text
Title : Полные
Language : English
Default : No
Forced : No

Menu
00:00:00.000 : 00:00:00.000
00:03:34.868 : 00:03:34.868
00:04:25.127 : 00:04:25.127
00:08:44.094 : 00:08:44.094
00:09:44.613 : 00:09:44.613
00:14:50.502 : 00:14:50.502
00:19:02.879 : 00:19:02.879
00:23:03.744 : 00:23:03.744
00:26:06.927 : 00:26:06.927
00:29:38.430 : 00:29:38.430
00:32:54.710 : 00:32:54.710
00:35:51.803 : 00:35:51.803
00:38:55.570 : 00:38:55.570
00:40:29.623 : 00:40:29.623
00:42:18.523 : 00:42:18.523
00:47:57.445 : 00:47:57.445
00:50:59.043 : 00:50:59.043
00:54:56.280 : 00:54:56.280
00:59:23.922 : 00:59:23.922
01:03:07.354 : 01:03:07.354
01:06:32.392 : 01:06:32.392
01:10:54.487 : 01:10:54.487
01:13:04.492 : 01:13:04.492
01:15:09.909 : 01:15:09.909
01:17:03.981 : 01:17:03.981
01:19:11.734 : 01:19:11.734
01:21:23.866 : 01:21:23.866
01:24:30.135 : 01:24:30.135
01:26:50.401 : 01:26:50.401
01:31:10.327 : 01:31:10.327
01:32:45.297 : 01:32:45.297

Название: Кошмар на улице Вязов 4: Повелитель сна
Оригинальное название: A Nightmare on Elm Street 4: The Dream Master
Год выпуска: 1988
Страна: США
Жанр: ужасы, триллер
Продолжительность: 01:33:28
Перевод: Профессиональный многоголосый
Субтитры: русские (Полные), английские (Полные)
Режиссер: Ренни Харлин / Renny Harlin
В ролях: Роберт Инглунд (Freddy Krueger), Лиза Уилкокс (Alice Johnson), Андрас Джонс (Rick Johnson), Дэнни Хэссел (Dan Jordan), Родни Истман (Joey Crusel), Тьюзди Найт (Kristen Parker), Кен Сэйгоз (Roland Kincaid), Брук Банди (Elaine Parker), Николас Меле (Mr. Dennis Johnson), Той Ньюкирк (Sheila Kopecky), Брук Тэйсс (Debbie Stevens), Жаклин Маше (Mrs. Crusel)
Описание:
Маленькая собачка, писающая огненным пламенем на могилу Фредди во сне одного из героев, оживляет этого Повелителя снов. С радостью он начинает убивать выживших героев предыдущей части, в свое время оказавших ему достойное сопротивление. Казалось, он останется непобедимым и ужасным Кошмаром улицы Вязов.
Но Фредди просчитался: за мгновение до своего ухода в мир иной, Кристен, последний отпрыск с улицы Вязов, успевает передать свою уникальную способность заманивать в свои сны других людей девушке Элис...
Рейтинг
kinopoisk.ru: 6.623 (7481)
imdb.com: 5.60 (29 303)
MPAA: R - Лицам до 17 лет обязательно присутствие взрослого
Автор рипа:Tiberiumsun69

Качество: BDRip 1080p / 60 FPS
Формат: MKV
Видео кодек: AVC
Аудио кодек:AC3
Видео: AVC, 1920x1080 (16:9), 14000 kbps, 59,940 fps, 0,113 bpp
Аудио №1: русский / AC3 / 2.0 / 48 kHz / 192 kbps / 16 bit |Многоголосый, закадровый НТВ|
Аудио №2: русский / AC3 / 2.0 / 48 kHz / 192 kbps / 16 bit |Многоголосый, закадровый Россия|
Аудио №3: русский / AC3 / 5.1 / 48 kHz / 640 kbps / 16 bit |Многоголосый, закадровый Позитив|
Аудио №4: русский / AC3 / 5.1 / 48 kHz / 640 kbps / 16 bit |Многоголосый, закадровый Киномания|
Аудио №5: русский / AC3 / 5.1 / 48 kHz / 640 kbps / 16 bit |Многоголосый, закадровый CP Digital|
Аудио №6: английский / AC3 / 5.1 / 48 kHz / 640 kbps / 16 bit
Навигация по главам: есть

General
Unique ID : 221646934161150431776691275124274449009 (0xA6BFA591F3010269856A120114F14A71)
Complete name : A:\1080p 60fps\Кошмар на улице Вязов 1080p 60fps\Кошмар на улице Вязов 4 Повелитель снов 1080p 60fps.mkv
Format : Matroska
Format version : Version 4 / Version 2
File size : 11.1 GiB
Duration : 1h 33mn
Overall bit rate : 16.9 Mbps
Movie name : R.G. HD-Films by Tiberiumsun69 60fps
Encoded date : UTC 2014-11-07 17:14:38
Writing application : mkvmerge v6.9.1 ('Blue Panther') 64bit built on Apr 18 2014 18:23:38
Writing library : libebml v1.3.0 + libmatroska v1.4.1
Attachements : Cover.png

Video
ID : 1
Format : AVC
Format/Info : Advanced Video Codec
Format profile : High@L4.1
Format settings, CABAC : Yes
Format settings, ReFrames : 4 frames
Codec ID : V_MPEG4/ISO/AVC
Duration : 1h 33mn
Bit rate : 14.0 Mbps
Width : 1 920 pixels
Height : 1 080 pixels
Display aspect ratio : 16:9
Frame rate mode : Constant
Frame rate : 59.880 fps
Original frame rate : 59.940 fps
Color space : YUV
Chroma subsampling : 4:2:0
Bit depth : 8 bits
Scan type : Progressive
Bits/(Pixel*Frame) : 0.113
Stream size : 8.92 GiB (81%)
Title : R.G. HD-Films by Tiberiumsun69 60fps
Writing library : x264 core 130 r2273 b3065e6
Encoding settings : cabac=1 / ref=4 / deblock=1:-1:-1 / analyse=0x3:0 / me=umh / subme=9 / psy=1 / psy_rd=1.00:0.00 / mixed_ref=1 / me_range=44 / chroma_me=0 / trellis=2 / 8x8dct=1 / cqm=0 / deadzone=21,11 / fast_pskip=0 / chroma_qp_offset=-2 / threads=12 / lookahead_threads=1 / sliced_threads=0 / nr=0 / decimate=0 / interlaced=0 / bluray_compat=0 / constrained_intra=0 / bframes=5 / b_pyramid=2 / b_adapt=2 / b_bias=0 / direct=3 / weightb=1 / open_gop=0 / weightp=2 / keyint=250 / keyint_min=59 / scenecut=40 / intra_refresh=0 / rc_lookahead=60 / rc=2pass / mbtree=1 / bitrate=14000 / ratetol=1.0 / qcomp=0.80 / qpmin=0 / qpmax=69 / qpstep=4 / cplxblur=20.0 / qblur=0.5 / ip_ratio=1.40 / aq=1:0.80
Language : English
Default : Yes
Forced : No

Audio #1
ID : 2
Format : AC-3
Format/Info : Audio Coding 3
Mode extension : CM (complete main)
Format settings, Endianness : Big
Codec ID : A_AC3
Duration : 1h 33mn
Bit rate mode : Constant
Bit rate : 192 Kbps
Channel(s) : 2 channels
Channel positions : Front: L R
Sampling rate : 48.0 KHz
Bit depth : 16 bits
Compression mode : Lossy
Stream size : 128 MiB (1%)
Title : Многоголосый, закадровый НТВ
Language : Russian
Default : Yes
Forced : No

Audio #2
ID : 3
Format : AC-3
Format/Info : Audio Coding 3
Mode extension : CM (complete main)
Format settings, Endianness : Big
Codec ID : A_AC3
Duration : 1h 33mn
Bit rate mode : Constant
Bit rate : 192 Kbps
Channel(s) : 2 channels
Channel positions : Front: L R
Sampling rate : 48.0 KHz
Bit depth : 16 bits
Compression mode : Lossy
Stream size : 128 MiB (1%)
Title : Многоголосый, закадровый Россия
Language : Russian
Default : No
Forced : No

Audio #3
ID : 4
Format : AC-3
Format/Info : Audio Coding 3
Mode extension : CM (complete main)
Format settings, Endianness : Big
Codec ID : A_AC3
Duration : 1h 33mn
Bit rate mode : Constant
Bit rate : 640 Kbps
Channel(s) : 6 channels
Channel positions : Front: L C R, Side: L R, LFE
Sampling rate : 48.0 KHz
Bit depth : 16 bits
Compression mode : Lossy
Stream size : 428 MiB (4%)
Title : Многоголосый, закадровый Позитив
Language : Russian
Default : No
Forced : No

Audio #4
ID : 5
Format : AC-3
Format/Info : Audio Coding 3
Mode extension : CM (complete main)
Format settings, Endianness : Big
Codec ID : A_AC3
Duration : 1h 33mn
Bit rate mode : Constant
Bit rate : 640 Kbps
Channel(s) : 6 channels
Channel positions : Front: L C R, Side: L R, LFE
Sampling rate : 48.0 KHz
Bit depth : 16 bits
Compression mode : Lossy
Stream size : 428 MiB (4%)
Title : Многоголосый, закадровый Киномания
Language : Russian
Default : No
Forced : No

Audio #5
ID : 6
Format : AC-3
Format/Info : Audio Coding 3
Mode extension : CM (complete main)
Format settings, Endianness : Big
Codec ID : A_AC3
Duration : 1h 33mn
Bit rate mode : Constant
Bit rate : 640 Kbps
Channel(s) : 6 channels
Channel positions : Front: L C R, Side: L R, LFE
Sampling rate : 48.0 KHz
Bit depth : 16 bits
Compression mode : Lossy
Stream size : 428 MiB (4%)
Title : Многоголосый, закадровый CP Digital
Language : Russian
Default : No
Forced : No

Audio #6
ID : 7
Format : AC-3
Format/Info : Audio Coding 3
Mode extension : CM (complete main)
Format settings, Endianness : Big
Codec ID : A_AC3
Duration : 1h 33mn
Bit rate mode : Constant
Bit rate : 640 Kbps
Channel(s) : 6 channels
Channel positions : Front: L C R, Side: L R, LFE
Sampling rate : 48.0 KHz
Bit depth : 16 bits
Compression mode : Lossy
Stream size : 428 MiB (4%)
Title : Оригинал
Language : English
Default : No
Forced : No

Text #1
ID : 8
Format : UTF-8
Codec ID : S_TEXT/UTF8
Codec ID/Info : UTF-8 Plain Text
Title : Полные
Language : Russian
Default : No
Forced : No

Text #2
ID : 9
Format : UTF-8
Codec ID : S_TEXT/UTF8
Codec ID/Info : UTF-8 Plain Text
Title : Полные
Language : English
Default : No
Forced : No

Menu
00:00:00.000 : en:00:00:00.000
00:05:10.297 : en:00:05:10.297
00:07:33.732 : en:00:07:33.732
00:12:24.189 : en:00:12:24.189
00:15:42.387 : en:00:15:42.387
00:20:46.816 : en:00:20:46.816
00:23:19.010 : en:00:23:19.010
00:25:22.174 : en:00:25:22.174
00:28:14.013 : en:00:28:14.013
00:31:01.764 : en:00:31:01.764
00:33:08.599 : en:00:33:08.599
00:35:20.439 : en:00:35:20.439
00:39:52.919 : en:00:39:52.919
00:43:39.103 : en:00:43:39.103
00:47:11.607 : en:00:47:11.607
00:53:16.347 : en:00:53:16.347
00:55:44.286 : en:00:55:44.286
00:58:41.922 : en:00:58:41.922
01:02:19.514 : en:01:02:19.514
01:05:15.982 : en:01:05:15.982
01:07:49.177 : en:01:07:49.177
01:12:07.143 : en:01:12:07.143
01:14:43.466 : en:01:14:43.466
01:19:26.248 : en:01:19:26.248
01:22:41.360 : en:01:22:41.360
01:26:06.148 : en:01:26:06.148
01:27:13.799 : en:01:27:13.799

Название: Кошмар на улице Вязов 5: Дитя сна
Оригинальное название: A Nightmare on Elm Street: The Dream Child
Год выпуска: 1989
Страна: США
Жанр: ужасы, триллер
Продолжительность: 01:29:51
Перевод: Профессиональный многоголосый
Субтитры: русские (Полные), английские (Полные)
Режиссер: Стивен Хопкинс / Stephen Hopkins
В ролях: Роберт Инглунд (Freddy Krueger), Лиза Уилкокс (Alice), Келли Джо Минтер (Yvonne), Дэнни Хэссел (Dan), Эрика Андерсон (Greta), Николас Меле (Dennis Johnson), Джо Сили (Mark Gray), Вэлори Армстронг (Mrs. Jordan), Барр ДеБеннинг (Mr. Jordan), Кларенс Фелдер (Mr. Gray), Майкл Эштон (Gurney Orderly), Беатрис Боппл (Amanda Krueger)
Описание:
Неистребимый детоубийца, который в пятой части даже объявляет себя Супер-Фредди, исхитряется возродиться в ребенке, находящемся в утробе матери. Единственный шанс спасти ребенка - найти незахороненный труп монашки Аманды Крюгер, породившей на свет такое чудовище как Фредди, чтобы его уничтожить.
Фантастическая и феерическая картина с невероятными превращениями при помощи сложного грима с визуальными и компьютерными эффектами вновь имела огромный успех у зрителей.
Рейтинг
kinopoisk.ru: 6.273 (6875)
imdb.com: 5.00 (24 101)
MPAA: R - Лицам до 17 лет обязательно присутствие взрослого
Автор рипа:Tiberiumsun69

Качество: BDRip 1080p / 60 FPS
Формат: MKV
Видео кодек: AVC
Аудио кодек:AC3
Видео: AVC, 1920x1080 (16:9), 14000 kbps, 59,940 fps, 0,113 bpp
Аудио №1: русский / AC3 / 2.0 / 48 kHz / 192 kbps / 16 bit |Многоголосый, закадровый НТВ|
Аудио №2: русский / AC3 / 2.0 / 48 kHz / 192 kbps / 16 bit |Многоголосый, закадровый Россия|
Аудио №3: русский / AC3 / 5.1 / 48 kHz / 640 kbps / 16 bit |Многоголосый, закадровый Позитив|
Аудио №4: русский / AC3 / 5.1 / 48 kHz / 640 kbps / 16 bit |Многоголосый, закадровый Киномания|
Аудио №5: русский / AC3 / 2.0 / 48 kHz / 192 kbps / 16 bit |Многоголосый, закадровый CP Digital|
Аудио №6: английский / AC3 / 5.1 / 48 kHz / 640 kbps / 16 bit
Навигация по главам: есть

General
Unique ID : 183599029199603793783141875341958242322 (0x8A1FE305F41D7B03BFEC33BC9B4AE012)
Complete name : A:\1080p 60fps\Кошмар на улице Вязов 1080p 60fps\Кошмар на улице Вязов 5 Дитя сна 1080p 60fps.mkv
Format : Matroska
Format version : Version 4 / Version 2
File size : 10.3 GiB
Duration : 1h 29mn
Overall bit rate : 16.5 Mbps
Movie name : R.G. HD-Films by Tiberiumsun69 60fps
Encoded date : UTC 2014-11-07 17:47:41
Writing application : mkvmerge v6.9.1 ('Blue Panther') 64bit built on Apr 18 2014 18:23:38
Writing library : libebml v1.3.0 + libmatroska v1.4.1
Attachements : Cover.png

Video
ID : 1
Format : AVC
Format/Info : Advanced Video Codec
Format profile : High@L4.1
Format settings, CABAC : Yes
Format settings, ReFrames : 4 frames
Codec ID : V_MPEG4/ISO/AVC
Duration : 1h 29mn
Bit rate : 14.0 Mbps
Width : 1 920 pixels
Height : 1 080 pixels
Display aspect ratio : 16:9
Frame rate mode : Constant
Frame rate : 59.880 fps
Original frame rate : 59.940 fps
Color space : YUV
Chroma subsampling : 4:2:0
Bit depth : 8 bits
Scan type : Progressive
Bits/(Pixel*Frame) : 0.113
Stream size : 8.57 GiB (83%)
Title : R.G. HD-Films by Tiberiumsun69 60fps
Writing library : x264 core 130 r2273 b3065e6
Encoding settings : cabac=1 / ref=4 / deblock=1:-1:-1 / analyse=0x3:0 / me=umh / subme=9 / psy=1 / psy_rd=1.00:0.00 / mixed_ref=1 / me_range=44 / chroma_me=0 / trellis=2 / 8x8dct=1 / cqm=0 / deadzone=21,11 / fast_pskip=0 / chroma_qp_offset=-2 / threads=12 / lookahead_threads=1 / sliced_threads=0 / nr=0 / decimate=0 / interlaced=0 / bluray_compat=0 / constrained_intra=0 / bframes=5 / b_pyramid=2 / b_adapt=2 / b_bias=0 / direct=3 / weightb=1 / open_gop=0 / weightp=2 / keyint=250 / keyint_min=59 / scenecut=40 / intra_refresh=0 / rc_lookahead=60 / rc=2pass / mbtree=1 / bitrate=14000 / ratetol=1.0 / qcomp=0.80 / qpmin=0 / qpmax=69 / qpstep=4 / cplxblur=20.0 / qblur=0.5 / ip_ratio=1.40 / aq=1:0.80
Language : English
Default : Yes
Forced : No

Audio #1
ID : 2
Format : AC-3
Format/Info : Audio Coding 3
Mode extension : CM (complete main)
Format settings, Endianness : Big
Codec ID : A_AC3
Duration : 1h 29mn
Bit rate mode : Constant
Bit rate : 192 Kbps
Channel(s) : 2 channels
Channel positions : Front: L R
Sampling rate : 48.0 KHz
Bit depth : 16 bits
Compression mode : Lossy
Stream size : 123 MiB (1%)
Title : Многоголосый, закадровый НТВ
Language : Russian
Default : Yes
Forced : No

Audio #2
ID : 3
Format : AC-3
Format/Info : Audio Coding 3
Mode extension : CM (complete main)
Format settings, Endianness : Big
Codec ID : A_AC3
Duration : 1h 29mn
Bit rate mode : Constant
Bit rate : 192 Kbps
Channel(s) : 2 channels
Channel positions : Front: L R
Sampling rate : 48.0 KHz
Bit depth : 16 bits
Compression mode : Lossy
Stream size : 123 MiB (1%)
Title : Многоголосый, закадровый Россия
Language : Russian
Default : No
Forced : No

Audio #3
ID : 4
Format : AC-3
Format/Info : Audio Coding 3
Mode extension : CM (complete main)
Format settings, Endianness : Big
Codec ID : A_AC3
Duration : 1h 29mn
Bit rate mode : Constant
Bit rate : 640 Kbps
Channel(s) : 6 channels
Channel positions : Front: L C R, Side: L R, LFE
Sampling rate : 48.0 KHz
Bit depth : 16 bits
Compression mode : Lossy
Stream size : 411 MiB (4%)
Title : Многоголосый, закадровый Позитив
Language : Russian
Default : No
Forced : No

Audio #4
ID : 5
Format : AC-3
Format/Info : Audio Coding 3
Mode extension : CM (complete main)
Format settings, Endianness : Big
Codec ID : A_AC3
Duration : 1h 29mn
Bit rate mode : Constant
Bit rate : 640 Kbps
Channel(s) : 6 channels
Channel positions : Front: L C R, Side: L R, LFE
Sampling rate : 48.0 KHz
Bit depth : 16 bits
Compression mode : Lossy
Stream size : 411 MiB (4%)
Title : Многоголосый, закадровый Киномания
Language : Russian
Default : No
Forced : No

Audio #5
ID : 6
Format : AC-3
Format/Info : Audio Coding 3
Mode extension : CM (complete main)
Format settings, Endianness : Big
Codec ID : A_AC3
Duration : 1h 29mn
Bit rate mode : Constant
Bit rate : 192 Kbps
Channel(s) : 2 channels
Channel positions : Front: L R
Sampling rate : 48.0 KHz
Bit depth : 16 bits
Compression mode : Lossy
Stream size : 123 MiB (1%)
Title : Многоголосый, закадровый CP Digital
Language : Russian
Default : No
Forced : No

Audio #6
ID : 7
Format : AC-3
Format/Info : Audio Coding 3
Mode extension : CM (complete main)
Format settings, Endianness : Big
Codec ID : A_AC3
Duration : 1h 29mn
Bit rate mode : Constant
Bit rate : 640 Kbps
Channel(s) : 6 channels
Channel positions : Front: L C R, Side: L R, LFE
Sampling rate : 48.0 KHz
Bit depth : 16 bits
Compression mode : Lossy
Stream size : 411 MiB (4%)
Title : Оригинал
Language : English
Default : No
Forced : No

Text #1
ID : 8
Format : UTF-8
Codec ID : S_TEXT/UTF8
Codec ID/Info : UTF-8 Plain Text
Title : Полные
Language : Russian
Default : No
Forced : No

Text #2
ID : 9
Format : UTF-8
Codec ID : S_TEXT/UTF8
Codec ID/Info : UTF-8 Plain Text
Title : Полные
Language : English
Default : No
Forced : No

Menu
00:00:00.000 : 00:00:00.000
00:03:37.037 : 00:03:37.037
00:08:34.835 : 00:08:34.835
00:13:03.812 : 00:13:03.812
00:16:47.118 : 00:16:47.118
00:23:10.668 : 00:23:10.668
00:27:50.239 : 00:27:50.239
00:30:30.899 : 00:30:30.899
00:35:32.534 : 00:35:32.534
00:38:34.591 : 00:38:34.591
00:42:11.433 : 00:42:11.433
00:45:03.771 : 00:45:03.771
00:49:53.853 : 00:49:53.853
00:53:49.713 : 00:53:49.713
00:58:43.966 : 00:58:43.966
01:00:54.721 : 01:00:54.721
01:05:06.765 : 01:05:06.765
01:09:45.168 : 01:09:45.168
01:12:15.818 : 01:12:15.818
01:15:53.955 : 01:15:53.955
01:19:21.619 : 01:19:21.619
01:23:35.414 : 01:23:35.414
01:24:33.305 : 01:24:33.305

Название: Кошмар на улице Вязов 6: Фредди мертв
Оригинальное название: Freddy's Dead: The Final Nightmare
Год выпуска: 1991
Страна: США
Жанр: ужасы, триллер
Продолжительность: 01:29:25
Перевод: Профессиональный многоголосый
Субтитры: русские (Полные), английские (Полные)
Режиссер: Рейчел Тэлалей / Rachel Talalay
В ролях: Роберт Инглунд (Freddy Krueger), Лиза Зейн (Maggie Burroughs), Шон Гринблатт (John Doe), Лесли Дин (Tracy), Рики Дин Логан (Carlos), Брекин Мейер (Spencer), Яфет Котто (Doc), Том Арнольд (Childless Man), Розанна (Childless Woman), Элинор Донахью (Orphanage Woman), Джонни Депп (Guy on TV), Кассандра Рэйчел Фрил (Little Maggie / Katherine Krueger)
Описание:
Здесь выясняются причины появления духа-изверга Фредди Крюгера, с самого начала мстившего жителям своего родного городка. С детства заброшенный всеми, Фредди вырос очень озлобленным. Его терзает мания убийства, и он убивает детей, заманивая их в старую котельную. Когда суд по формальным причинам выносит маньяку оправдательный приговор, разъяренные родители жертв линчуют его.
Рейтинг
kinopoisk.ru: 6.051 (8793)
imdb.com: 4.90 (25 645)
MPAA: R - Лицам до 17 лет обязательно присутствие взрослого
Автор рипа:Tiberiumsun69

Качество: BDRip 1080p / 60 FPS
Формат: MKV
Видео кодек: AVC
Аудио кодек:AC3
Видео: AVC, 1920x1080 (16:9), 14000 kbps, 59,940 fps, 0,113 bpp
Аудио №1: русский / AC3 / 2.0 / 48 kHz / 192 kbps / 16 bit |Многоголосый, закадровый НТВ|
Аудио №2: русский / AC3 / 5.1 / 48 kHz / 640 kbps / 16 bit |Многоголосый, закадровый Позитив|
Аудио №3: русский / AC3 / 5.1 / 48 kHz / 640 kbps / 16 bit |Многоголосый, закадровый Киномания|
Аудио №4: русский / AC3 / 2.0 / 48 kHz / 192 kbps / 16 bit |Многоголосый, закадровый CP Digital|
Аудио №5: английский / AC3 / 5.1 / 48 kHz / 640 kbps / 16 bit
Навигация по главам: есть

General
Unique ID : 225181160567228126179243839614924230804 (0xA96850629ED97134AB00F9EB57661094)
Complete name : A:\1080p 60fps\Кошмар на улице Вязов 1080p 60fps\Кошмар на улице Вязов 6 Фредди мертв 1080p 60fps.mkv
Format : Matroska
Format version : Version 4 / Version 2
File size : 10.2 GiB
Duration : 1h 29mn
Overall bit rate : 16.3 Mbps
Movie name : R.G. HD-Films by Tiberiumsun69 60fps
Encoded date : UTC 2014-11-07 18:19:16
Writing application : mkvmerge v6.9.1 ('Blue Panther') 64bit built on Apr 18 2014 18:23:38
Writing library : libebml v1.3.0 + libmatroska v1.4.1
Attachment : Yes

Video
ID : 1
Format : AVC
Format/Info : Advanced Video Codec
Format profile : High@L4.1
Format settings, CABAC : Yes
Format settings, ReFrames : 4 frames
Codec ID : V_MPEG4/ISO/AVC
Duration : 1h 29mn
Bit rate : 14.0 Mbps
Width : 1 920 pixels
Height : 1 080 pixels
Display aspect ratio : 16:9
Frame rate : 59.940 fps
Color space : YUV
Chroma subsampling : 4:2:0
Bit depth : 8 bits
Scan type : Progressive
Bits/(Pixel*Frame) : 0.113
Stream size : 8.53 GiB (84%)
Title : R.G. HD-Films by Tiberiumsun69 60fps
Writing library : x264 core 130 r2273 b3065e6
Encoding settings : cabac=1 / ref=4 / deblock=1:-1:-1 / analyse=0x3:0 / me=umh / subme=9 / psy=1 / psy_rd=1.00:0.00 / mixed_ref=1 / me_range=44 / chroma_me=0 / trellis=2 / 8x8dct=1 / cqm=0 / deadzone=21,11 / fast_pskip=0 / chroma_qp_offset=-2 / threads=12 / lookahead_threads=1 / sliced_threads=0 / nr=0 / decimate=0 / interlaced=0 / bluray_compat=0 / constrained_intra=0 / bframes=5 / b_pyramid=2 / b_adapt=2 / b_bias=0 / direct=3 / weightb=1 / open_gop=0 / weightp=2 / keyint=250 / keyint_min=59 / scenecut=40 / intra_refresh=0 / rc_lookahead=60 / rc=2pass / mbtree=1 / bitrate=14000 / ratetol=1.0 / qcomp=0.80 / qpmin=0 / qpmax=69 / qpstep=4 / cplxblur=20.0 / qblur=0.5 / ip_ratio=1.40 / aq=1:0.80
Language : English
Default : Yes
Forced : No

Audio #1
ID : 2
Format : AC-3
Format/Info : Audio Coding 3
Mode extension : CM (complete main)
Codec ID : A_AC3
Duration : 1h 29mn
Bit rate mode : Constant
Bit rate : 192 Kbps
Channel(s) : 2 channels
Channel positions : Front: L R
Sampling rate : 48.0 KHz
Bit depth : 16 bits
Compression mode : Lossy
Stream size : 123 MiB (1%)
Title : Многоголосый, закадровый НТВ
Language : Russian
Default : Yes
Forced : No

Audio #2
ID : 3
Format : AC-3
Format/Info : Audio Coding 3
Mode extension : CM (complete main)
Codec ID : A_AC3
Duration : 1h 29mn
Bit rate mode : Constant
Bit rate : 640 Kbps
Channel(s) : 6 channels
Channel positions : Front: L C R, Side: L R, LFE
Sampling rate : 48.0 KHz
Bit depth : 16 bits
Compression mode : Lossy
Stream size : 409 MiB (4%)
Title : Многоголосый, закадровый Позитив
Language : Russian
Default : No
Forced : No

Audio #3
ID : 4
Format : AC-3
Format/Info : Audio Coding 3
Mode extension : CM (complete main)
Codec ID : A_AC3
Duration : 1h 29mn
Bit rate mode : Constant
Bit rate : 640 Kbps
Channel(s) : 6 channels
Channel positions : Front: L C R, Side: L R, LFE
Sampling rate : 48.0 KHz
Bit depth : 16 bits
Compression mode : Lossy
Stream size : 409 MiB (4%)
Title : Многоголосый, закадровый Киномания
Language : Russian
Default : No
Forced : No

Audio #4
ID : 5
Format : AC-3
Format/Info : Audio Coding 3
Mode extension : CM (complete main)
Codec ID : A_AC3
Duration : 1h 29mn
Bit rate mode : Constant
Bit rate : 192 Kbps
Channel(s) : 2 channels
Channel positions : Front: L R
Sampling rate : 48.0 KHz
Bit depth : 16 bits
Compression mode : Lossy
Stream size : 123 MiB (1%)
Title : Многоголосый, закадровый CP Digital
Language : Russian
Default : No
Forced : No

Audio #5
ID : 6
Format : AC-3
Format/Info : Audio Coding 3
Mode extension : CM (complete main)
Codec ID : A_AC3
Duration : 1h 29mn
Bit rate mode : Constant
Bit rate : 640 Kbps
Channel(s) : 6 channels
Channel positions : Front: L C R, Side: L R, LFE
Sampling rate : 48.0 KHz
Bit depth : 16 bits
Compression mode : Lossy
Stream size : 409 MiB (4%)
Title : Оригинал
Language : English
Default : No
Forced : No

Text #1
ID : 7
Format : UTF-8
Codec ID : S_TEXT/UTF8
Codec ID/Info : UTF-8 Plain Text
Title : Полные
Language : Russian
Default : No
Forced : No

Text #2
ID : 8
Format : UTF-8
Codec ID : S_TEXT/UTF8
Codec ID/Info : UTF-8 Plain Text
Title : Полные
Language : English
Default : No
Forced : No

Menu
00:00:00.000 : 00:00:00.000
00:04:58.285 : 00:04:58.285
00:08:36.503 : 00:08:36.503
00:13:09.776 : 00:13:09.776
00:14:44.204 : 00:14:44.204
00:15:57.109 : 00:15:57.109
00:19:13.848 : 00:19:13.848
00:20:38.558 : 00:20:38.558
00:24:47.973 : 00:24:47.973
00:29:53.153 : 00:29:53.153
00:31:59.321 : 00:31:59.321
00:39:48.039 : 00:39:48.039
00:42:22.277 : 00:42:22.277
00:46:36.906 : 00:46:36.906
00:49:41.048 : 00:49:41.048
00:54:59.492 : 00:54:59.492
00:58:25.322 : 00:58:25.322
01:02:45.916 : 01:02:45.916
01:05:54.396 : 01:05:54.396
01:08:45.900 : 01:08:45.900
01:10:50.650 : 01:10:50.650
01:17:47.108 : 01:17:47.108
01:24:40.562 : 01:24:40.562

Название: Кошмар на улице Вязов 7
Оригинальное название: New Nightmare
Год выпуска: 1994
Страна: США
Жанр: ужасы, фэнтези, триллер, детектив
Продолжительность: 01:52:20
Перевод: Профессиональный многоголосый
Субтитры: русские (Полные), английские (Полные)
Режиссер: Уэс Крэйвен / Wes Craven
В ролях: Джефф Дэвис (Freddy's Hand Double), Хэзер Лэнгенкэмп (Heather Langenkamp), Мико Хьюз (Dylan), Мэтт Уинстон (Chuck), Роб ЛаБелль (Terry), Дэвид Ньюсом (Chase Porter), Уэс Крэйвен (Wes Craven), Марианн Маддалена (Marianne Maddalena), Гретхен Ёлер (Script Supervisor), Трэйси Миддендорф (Julie), Калли Фредриксен (Limo Driver), Бодхи Элфмэн (TV Studio P.A.)
Описание:
На съёмках очередной серии фильма «Кошмар на улице Вязов» происходит несчастный случай: новая, технически совершенная перчатка Фредди убивает работников со спецэффектами и ранит Чейза Портера - мужа Хизер Ландженкамп, исполнительницы роли Нэнси. Сын Хизер исчезает непонятным образом. Но вот Хизер просыпается из-за землетрясения и понимает, что это был всего лишь сон. Однако её муж порезал пальцы именно так, как это случилось в её сне...
Рейтинг
kinopoisk.ru: 6.393 (7148)
imdb.com: 6.40 (31 295)
MPAA: R - Лицам до 17 лет обязательно присутствие взрослого
Автор рипа:Tiberiumsun69

Качество: BDRip 1080p / 60 FPS
Формат: MKV
Видео кодек: AVC
Аудио кодек:AC3
Видео: AVC, 1920x1080 (16:9), 14000 kbps, 59,940 fps, 0,113 bpp
Аудио №1: русский / AC3 / 2.0 / 48 kHz / 192 kbps / 16 bit |Многоголосый, закадровый НТВ|
Аудио №2: русский / AC3 / 5.1 / 48 kHz / 640 kbps / 16 bit |Многоголосый, закадровый Позитив|
Аудио №3: русский / AC3 / 5.1 / 48 kHz / 640 kbps / 16 bit |Многоголосый, закадровый Киномания|
Аудио №4: русский / AC3 / 2.0 / 48 kHz / 192 kbps / 16 bit |Многоголосый, закадровый CP Digital|
Аудио №5: английский / AC3 / 5.1 / 48 kHz / 640 kbps / 16 bit
Навигация по главам: есть

General
Unique ID : 231020013648203399247031589454875964025 (0xADCCD6117379B3949A9F2CE4C463B279)
Complete name : A:\1080p 60fps\Кошмар на улице Вязов 1080p 60fps\Кошмар на улице Вязов 7 Новый кошмар 1080p 60fps.mkv
Format : Matroska
Format version : Version 4 / Version 2
File size : 12.8 GiB
Duration : 1h 52mn
Overall bit rate : 16.3 Mbps
Movie name : R.G. HD-Films by Tiberiumsun69 60fps
Encoded date : UTC 2014-11-07 19:02:39
Writing application : mkvmerge v6.9.1 ('Blue Panther') 64bit built on Apr 18 2014 18:23:38
Writing library : libebml v1.3.0 + libmatroska v1.4.1
Attachment : Yes

Video
ID : 1
Format : AVC
Format/Info : Advanced Video Codec
Format profile : High@L4.1
Format settings, CABAC : Yes
Format settings, ReFrames : 4 frames
Codec ID : V_MPEG4/ISO/AVC
Duration : 1h 52mn
Bit rate : 14.0 Mbps
Width : 1 920 pixels
Height : 1 080 pixels
Display aspect ratio : 16:9
Frame rate : 59.940 fps
Color space : YUV
Chroma subsampling : 4:2:0
Bit depth : 8 bits
Scan type : Progressive
Bits/(Pixel*Frame) : 0.113
Stream size : 10.7 GiB (84%)
Title : R.G. HD-Films by Tiberiumsun69 60fps
Writing library : x264 core 130 r2273 b3065e6
Encoding settings : cabac=1 / ref=4 / deblock=1:-1:-1 / analyse=0x3:0 / me=umh / subme=9 / psy=1 / psy_rd=1.00:0.00 / mixed_ref=1 / me_range=44 / chroma_me=0 / trellis=2 / 8x8dct=1 / cqm=0 / deadzone=21,11 / fast_pskip=0 / chroma_qp_offset=-2 / threads=12 / lookahead_threads=1 / sliced_threads=0 / nr=0 / decimate=0 / interlaced=0 / bluray_compat=0 / constrained_intra=0 / bframes=5 / b_pyramid=2 / b_adapt=2 / b_bias=0 / direct=3 / weightb=1 / open_gop=0 / weightp=2 / keyint=250 / keyint_min=59 / scenecut=40 / intra_refresh=0 / rc_lookahead=60 / rc=2pass / mbtree=1 / bitrate=14000 / ratetol=1.0 / qcomp=0.80 / qpmin=0 / qpmax=69 / qpstep=4 / cplxblur=20.0 / qblur=0.5 / ip_ratio=1.40 / aq=1:0.80
Language : English
Default : Yes
Forced : No

Audio #1
ID : 2
Format : AC-3
Format/Info : Audio Coding 3
Mode extension : CM (complete main)
Codec ID : A_AC3
Duration : 1h 52mn
Bit rate mode : Constant
Bit rate : 192 Kbps
Channel(s) : 2 channels
Channel positions : Front: L R
Sampling rate : 48.0 KHz
Bit depth : 16 bits
Compression mode : Lossy
Stream size : 154 MiB (1%)
Title : Многоголосый, закадровый НТВ
Language : Russian
Default : Yes
Forced : No

Audio #2
ID : 3
Format : AC-3
Format/Info : Audio Coding 3
Mode extension : CM (complete main)
Codec ID : A_AC3
Duration : 1h 52mn
Bit rate mode : Constant
Bit rate : 640 Kbps
Channel(s) : 6 channels
Channel positions : Front: L C R, Side: L R, LFE
Sampling rate : 48.0 KHz
Bit depth : 16 bits
Compression mode : Lossy
Stream size : 514 MiB (4%)
Title : Многоголосый, закадровый Позитив
Language : Russian
Default : No
Forced : No

Audio #3
ID : 4
Format : AC-3
Format/Info : Audio Coding 3
Mode extension : CM (complete main)
Codec ID : A_AC3
Duration : 1h 52mn
Bit rate mode : Constant
Bit rate : 640 Kbps
Channel(s) : 6 channels
Channel positions : Front: L C R, Side: L R, LFE
Sampling rate : 48.0 KHz
Bit depth : 16 bits
Compression mode : Lossy
Stream size : 514 MiB (4%)
Title : Многоголосый, закадровый Киномания
Language : Russian
Default : No
Forced : No

Audio #4
ID : 5
Format : AC-3
Format/Info : Audio Coding 3
Mode extension : CM (complete main)
Codec ID : A_AC3
Duration : 1h 52mn
Bit rate mode : Constant
Bit rate : 192 Kbps
Channel(s) : 2 channels
Channel positions : Front: L R
Sampling rate : 48.0 KHz
Bit depth : 16 bits
Compression mode : Lossy
Stream size : 154 MiB (1%)
Title : Многоголосый, закадровый CP Digital
Language : Russian
Default : No
Forced : No

Audio #5
ID : 6
Format : AC-3
Format/Info : Audio Coding 3
Mode extension : CM (complete main)
Codec ID : A_AC3
Duration : 1h 52mn
Bit rate mode : Constant
Bit rate : 640 Kbps
Channel(s) : 6 channels
Channel positions : Front: L C R, Side: L R, LFE
Sampling rate : 48.0 KHz
Bit depth : 16 bits
Compression mode : Lossy
Stream size : 514 MiB (4%)
Title : Оригинал
Language : English
Default : No
Forced : No

Text #1
ID : 7
Format : UTF-8
Codec ID : S_TEXT/UTF8
Codec ID/Info : UTF-8 Plain Text
Title : Полные
Language : Russian
Default : No
Forced : No

Text #2
ID : 8
Format : UTF-8
Codec ID : S_TEXT/UTF8
Codec ID/Info : UTF-8 Plain Text
Title : Полные
Language : English
Default : No
Forced : No

Menu
00:00:00.000 : 00:00:00.000
00:05:59.721 : 00:05:59.721
00:09:23.633 : 00:09:23.633
00:12:05.962 : 00:12:05.962
00:15:25.120 : 00:15:25.120
00:17:32.080 : 00:17:32.080
00:22:09.315 : 00:22:09.315
00:25:57.460 : 00:25:57.460
00:29:31.632 : 00:29:31.632
00:33:06.305 : 00:33:06.305
00:36:13.408 : 00:36:13.408
00:39:05.330 : 00:39:05.330
00:43:49.781 : 00:43:49.781
00:47:33.796 : 00:47:33.796
00:51:01.629 : 00:51:01.629
00:55:20.888 : 00:55:20.888
00:59:33.140 : 00:59:33.140
01:05:11.978 : 01:05:11.978
01:09:11.343 : 01:09:11.343
01:12:05.517 : 01:12:05.517
01:14:44.217 : 01:14:44.217
01:17:02.104 : 01:17:02.104
01:20:23.139 : 01:20:23.139
01:22:52.204 : 01:22:52.204
01:25:19.393 : 01:25:19.393
01:29:24.263 : 01:29:24.263
01:32:17.269 : 01:32:17.269
01:42:42.518 : 01:42:42.518
01:44:06.853 : 01:44:06.853

Название: Фредди против Джейсона
Оригинальное название: Freddy vs. Jason
Год выпуска: 2003
Страна: Канада, США, Италия
Жанр: ужасы, триллер
Продолжительность: 01:37:33
Перевод: Дубляж
Субтитры: русские (Полные), английские (Полные)
Режиссер: Ронни Ю / Ronny Yu
В ролях: Роберт Инглунд (Freddy Krueger), Кен Кирзингер (Jason Voorhees), Моника Кина (Lori Campbell), Джейсон Риттер (Will Rollins), Келли Роулэнд (Kia Waterson), Крис Маркетт (Charlie Linderman), Брендан Флетчер (Mark Davis), Кэтрин Изабель (Gibb), Локлин Манро (Deputy Scott Stubbs), Кайл Лабайн (Bill Freeburg), Том Батлер (Dr. Campbell), Дэвид Копп (Blake)
Описание:
Фредди Крюгер доведен до отчаяния: он больше не может убивать. Лишь используя неуклюжего серийного убийцу Джейсона Вурхиса, Фредди удается истреблять детей с улицы Вязов. Но когда Джейсон начинает понимать, что им попросту манипулируют, планы Фредди готовы рухнуть.
Теперь дело за тинейджерами Уиллом, Лори и Кией. Каким-то образом им надо заставить Джейсона раз и навсегда убить Фредди Крюгера.
Рейтинг
kinopoisk.ru: 6.182 (15 777)
imdb.com: 5.80 (75 294)
MPAA: R - Лицам до 17 лет обязательно присутствие взрослого
Автор рипа:Tiberiumsun69

Качество: BDRip 1080p / 60 FPS
Формат: MKV
Видео кодек: AVC
Аудио кодек:AC3
Видео: AVC, 1920x816 (2.35:1), 14000 kbps, 59,940 fps, 0,149 bpp
Аудио №1: русский / AC3 / 5.1 / 48 kHz / 448 kbps / 16 bit |Дубляж|
Аудио №2: английский / AC3 / 5.1 / 48 kHz / 640 kbps / 16 bit
Навигация по главам: есть

General
Unique ID : 176350389924304141852303342432766448999 (0x84ABD983B54F2E099A5201DE6548D567)
Complete name : A:\1080p 60fps\Кошмар на улице Вязов 1080p 60fps\Кошмар на улице вязов 8 Фредди против Джейсона 1080p 60fps.mkv
Format : Matroska
Format version : Version 4 / Version 2
File size : 10.3 GiB
Duration : 1h 37mn
Overall bit rate : 15.1 Mbps
Movie name : R.G. HD-Films by Tiberiumsun69 60fps
Encoded date : UTC 2014-11-07 19:31:04
Writing application : mkvmerge v6.9.1 ('Blue Panther') 64bit built on Apr 18 2014 18:23:38
Writing library : libebml v1.3.0 + libmatroska v1.4.1
Attachment : Yes

Video
ID : 1
Format : AVC
Format/Info : Advanced Video Codec
Format profile : High@L4.1
Format settings, CABAC : Yes
Format settings, ReFrames : 4 frames
Codec ID : V_MPEG4/ISO/AVC
Duration : 1h 37mn
Bit rate : 14.0 Mbps
Width : 1 920 pixels
Height : 816 pixels
Display aspect ratio : 2.35:1
Frame rate : 59.940 fps
Color space : YUV
Chroma subsampling : 4:2:0
Bit depth : 8 bits
Scan type : Progressive
Bits/(Pixel*Frame) : 0.149
Stream size : 9.33 GiB (91%)
Title : R.G. HD-Films by Tiberiumsun69 60fps
Writing library : x264 core 130 r2273 b3065e6
Encoding settings : cabac=1 / ref=4 / deblock=1:-1:-1 / analyse=0x3:0 / me=umh / subme=9 / psy=1 / psy_rd=1.00:0.00 / mixed_ref=1 / me_range=44 / chroma_me=0 / trellis=2 / 8x8dct=1 / cqm=0 / deadzone=21,11 / fast_pskip=0 / chroma_qp_offset=-2 / threads=12 / lookahead_threads=1 / sliced_threads=0 / nr=0 / decimate=0 / interlaced=0 / bluray_compat=0 / constrained_intra=0 / bframes=5 / b_pyramid=2 / b_adapt=2 / b_bias=0 / direct=3 / weightb=1 / open_gop=0 / weightp=2 / keyint=250 / keyint_min=59 / scenecut=40 / intra_refresh=0 / rc_lookahead=60 / rc=2pass / mbtree=1 / bitrate=14000 / ratetol=1.0 / qcomp=0.80 / qpmin=0 / qpmax=69 / qpstep=4 / cplxblur=20.0 / qblur=0.5 / ip_ratio=1.40 / aq=1:0.80
Language : English
Default : Yes
Forced : No

Audio #1
ID : 2
Format : AC-3
Format/Info : Audio Coding 3
Mode extension : CM (complete main)
Codec ID : A_AC3
Duration : 1h 37mn
Bit rate mode : Constant
Bit rate : 448 Kbps
Channel(s) : 6 channels
Channel positions : Front: L C R, Side: L R, LFE
Sampling rate : 48.0 KHz
Bit depth : 16 bits
Compression mode : Lossy
Stream size : 313 MiB (3%)
Title : Дубляж
Language : Russian
Default : Yes
Forced : No

Audio #2
ID : 3
Format : AC-3
Format/Info : Audio Coding 3
Mode extension : CM (complete main)
Codec ID : A_AC3
Duration : 1h 37mn
Bit rate mode : Constant
Bit rate : 640 Kbps
Channel(s) : 6 channels
Channel positions : Front: L C R, Side: L R, LFE
Sampling rate : 48.0 KHz
Bit depth : 16 bits
Compression mode : Lossy
Stream size : 447 MiB (4%)
Title : Оригинал
Language : English
Default : No
Forced : No

Text #1
ID : 4
Format : UTF-8
Codec ID : S_TEXT/UTF8
Codec ID/Info : UTF-8 Plain Text
Title : Полные
Language : Russian
Default : No
Forced : No

Text #2
ID : 5
Format : UTF-8
Codec ID : S_TEXT/UTF8
Codec ID/Info : UTF-8 Plain Text
Title : Полные
Language : English
Default : No
Forced : No

Menu
00:00:00.000 : 00:00:00.000
00:03:09.176 : 00:03:09.176
00:06:50.105 : 00:06:50.105
00:14:55.048 : 00:14:55.048
00:20:45.106 : 00:20:45.106
00:24:09.685 : 00:24:09.685
00:33:38.712 : 00:33:38.712
00:44:11.803 : 00:44:11.803
00:49:05.972 : 00:49:05.972
00:52:27.757 : 00:52:27.757
00:58:05.427 : 00:58:05.427
01:04:17.257 : 01:04:17.257
01:07:59.187 : 01:07:59.187
01:17:22.667 : 01:17:22.667
01:21:17.777 : 01:21:17.777
01:26:57.615 : 01:26:57.615
01:30:27.409 : 01:30:27.409

Название: Кошмар на улице Вязов
Оригинальное название: A Nightmare on Elm Street
Год выпуска: 2010
Страна: США
Жанр: ужасы, триллер, детектив
Продолжительность: 01:35:45
Перевод: Дубляж
Субтитры: русские (Форсированные), русские (Полные), английские (Полные)
Режиссер: Сэмюэл Байер / Samuel Bayer
В ролях: Джеки Эрл Хейли (Freddy Krueger), Кайл Галлнер (Quentin Smith), Руни Мара (Nancy Holbrook), Кэти Кэссиди (Kris Fowles), Томас Деккер (Jesse Braun), Келлан Латс (Dean Russell), Клэнси Браун (Alan Smith), Конни Бриттон (Dr. Gwen Holbrook), Лия Д. Мортенсен (Nora Fowles), Джулиана Дэмм (Little Kris), Кристиан Столте (Jesse's Father), Кэти Шупинг Найт (Creepy Girl #1)
Описание:
Группу подростков из пригорода преследует один и тот же кошмар: в снах за ними крадется жуткий, обезображенный убийца - Фредди Крюгер. Они могут защитить друг друга наяву, во сне же - остаются один на один с ожившим кошмаром, и шансы спастись стремительно приближаются к нулю... ведь, убитые во сне, они умирают и наяву.
Рейтинг
kinopoisk.ru: 5.666 (32 210)
imdb.com: 5.20 (63 780)
MPAA: R - Лицам до 17 лет обязательно присутствие взрослого
Автор рипа:Tiberiumsun69

Качество: BDRip 1080p / 60 FPS
Формат: MKV
Видео кодек: AVC
Аудио кодек:AC3
Видео: AVC, 1920x800 (2.40:1), 14000 kbps, 59,940 fps, 0,152 bpp
Аудио №1: русский / AC3 / 5.1 / 48 kHz / 640 kbps / 16 bit |Дубляж|
Аудио №2: английский / AC3 / 5.1 / 48 kHz / 640 kbps / 16 bit
Навигация по главам: есть

General
Unique ID : 200736784878556742886917632393873954198 (0x97047F9D4989E8DF825196B6DB179596)
Complete name : A:\1080p 60fps\Кошмар на улице Вязов 1080p 60fps\Кошмар на улице вязов 9 Ремейк (2010) 1080p 60fps.mkv
Format : Matroska
Format version : Version 4 / Version 2
File size : 10.2 GiB
Duration : 1h 35mn
Overall bit rate : 15.3 Mbps
Movie name : R.G. HD-Films by Tiberiumsun69 60fps
Encoded date : UTC 2014-11-08 00:18:17
Writing application : mkvmerge v6.9.1 ('Blue Panther') 64bit built on Apr 18 2014 18:23:38
Writing library : libebml v1.3.0 + libmatroska v1.4.1
Attachment : Yes

Video
ID : 1
Format : AVC
Format/Info : Advanced Video Codec
Format profile : High@L4.1
Format settings, CABAC : Yes
Format settings, ReFrames : 4 frames
Codec ID : V_MPEG4/ISO/AVC
Duration : 1h 35mn
Bit rate : 14.0 Mbps
Width : 1 920 pixels
Height : 800 pixels
Display aspect ratio : 2.40:1
Frame rate : 59.940 fps
Color space : YUV
Chroma subsampling : 4:2:0
Bit depth : 8 bits
Scan type : Progressive
Bits/(Pixel*Frame) : 0.152
Stream size : 9.16 GiB (90%)
Title : R.G. HD-Films by Tiberiumsun69 60fps
Writing library : x264 core 130 r2273 b3065e6
Encoding settings : cabac=1 / ref=4 / deblock=1:-1:-1 / analyse=0x3:0 / me=umh / subme=9 / psy=1 / psy_rd=1.00:0.00 / mixed_ref=1 / me_range=44 / chroma_me=0 / trellis=2 / 8x8dct=1 / cqm=0 / deadzone=21,11 / fast_pskip=0 / chroma_qp_offset=-2 / threads=12 / lookahead_threads=1 / sliced_threads=0 / nr=0 / decimate=0 / interlaced=0 / bluray_compat=0 / constrained_intra=0 / bframes=5 / b_pyramid=2 / b_adapt=2 / b_bias=0 / direct=3 / weightb=1 / open_gop=0 / weightp=2 / keyint=250 / keyint_min=59 / scenecut=40 / intra_refresh=0 / rc_lookahead=60 / rc=2pass / mbtree=1 / bitrate=14000 / ratetol=1.0 / qcomp=0.80 / qpmin=0 / qpmax=69 / qpstep=4 / cplxblur=20.0 / qblur=0.5 / ip_ratio=1.40 / aq=1:0.80
Language : English
Default : Yes
Forced : No

Audio #1
ID : 2
Format : AC-3
Format/Info : Audio Coding 3
Mode extension : CM (complete main)
Codec ID : A_AC3
Duration : 1h 35mn
Bit rate mode : Constant
Bit rate : 640 Kbps
Channel(s) : 6 channels
Channel positions : Front: L C R, Side: L R, LFE
Sampling rate : 48.0 KHz
Bit depth : 16 bits
Compression mode : Lossy
Stream size : 438 MiB (4%)
Title : Дубляж
Language : Russian
Default : Yes
Forced : No

Audio #2
ID : 3
Format : AC-3
Format/Info : Audio Coding 3
Mode extension : CM (complete main)
Codec ID : A_AC3
Duration : 1h 35mn
Bit rate mode : Constant
Bit rate : 640 Kbps
Channel(s) : 6 channels
Channel positions : Front: L C R, Side: L R, LFE
Sampling rate : 48.0 KHz
Bit depth : 16 bits
Compression mode : Lossy
Stream size : 438 MiB (4%)
Title : Оригинал
Language : English
Default : No
Forced : No

Text #1
ID : 4
Format : UTF-8
Codec ID : S_TEXT/UTF8
Codec ID/Info : UTF-8 Plain Text
Title : Форсированные
Language : Russian
Default : Yes
Forced : No

Text #2
ID : 5
Format : UTF-8
Codec ID : S_TEXT/UTF8
Codec ID/Info : UTF-8 Plain Text
Title : Полные
Language : Russian
Default : No
Forced : No

Text #3
ID : 6
Format : UTF-8
Codec ID : S_TEXT/UTF8
Codec ID/Info : UTF-8 Plain Text
Title : Полные
Language : English
Default : No
Forced : No

Menu
00:00:00.000 : 00:00:00.000
00:09:38.190 : 00:09:38.190
00:21:11.799 : 00:21:11.799
00:30:36.363 : 00:30:36.363
00:41:09.037 : 00:41:09.037
00:53:17.932 : 00:53:17.932
01:01:23.000 : 01:01:23.000
01:10:21.162 : 01:10:21.162
01:20:13.255 : 01:20:13.255
01:30:11.560 : 01:30:11.560
Просьба к переливающим на другие сайты, в оформлении указывайте пожалуйста авторство рипа - Tiberiumsun69
Поблагодарить релизера! Авторская группа в ВК
pb.wtf



Скачать Кошмар на улице Вязов: Антология через торрент http://i67.fastpic.ru/big/2014/1108/5b/156ef458aee3977882085d2d1ac6e25b.jpg Скачать фильм Кошмар на улице Вязов: Антология через торрент бесплантно в хорошем качестве Описание: Старшеклассников одной из школ Спрингвуда преследует один и тот же кошмарный сон, в котором за ними гонится и кромсает на куски ... 10 10 31
Info! Золотая раздача, скачанное не засчитывается.
Торрент: Зарегистрирован [2014-11-08 09:55] · скачан: 139 раз
Статус: √ проверено
Размер: 96.61 GB
Как cкачать? Как скачать Кошмар на улице Вязов: Антология через торрент | qTorrent

% Раздел Тема Автор DL S | L
Сборники и Сиквелы (48-60 fps) [ 32.4 GB ] Кошмар на улице Вязов : Антология / A Nightmare on Elm Street : Antology [1984-2010 BDRip-AVC 60fps MVO Dub] от R.G. HD-Films Tiberiumsun69 Скачать
1 | 1
Сборники на DVD и Сиквелы [DVDrip, WEB-DLRip, HDrip, BDRip] [ 19.42 GB ] Кошмар на улице Вязов: Антология / A Nightmare on Elm Street: Antology [1984-2010 BDRip-AVC] NarutoSasuke Скачать
1 | 0


Последний раз редактировалось: Tiberiumsun69 (2018-02-07 09:36), всего редактировалось 2 раз(а)

28-11-2019 20:33  

Отключить всю рекламу на сайте

08-11-2014 09:57 Кошмар на улице Вязов: Антология Скачать торрент  

Фуу.Целую ночь не спал. sweatpb.wtf



08-11-2014 11:41 Кошмар на улице Вязов: Антология Скачать торрент  

молодец! спасибо! pb.wtf



08-11-2014 13:17 Кошмар на улице Вязов: Антология Скачать торрент  

Блинский блин. Крутая подборка... Где б найти место для её хранения и время для скачивания?pb.wtf



08-11-2014 15:24 Кошмар на улице Вязов: Антология Скачать торрент  

Раздача круглосуточно, только бы докачать)pb.wtf



08-11-2014 15:25 Кошмар на улице Вязов: Антология Скачать торрент  

Dangel-81 писал(а):

Раздача круглосуточно, только бы докачать)

До конца следующей недели. :declare: pb.wtf



08-11-2014 16:39 Кошмар на улице Вязов: Антология Скачать торрент  

я пас качать стока worrypb.wtf



09-11-2014 04:33 Кошмар на улице Вязов: Антология Скачать торрент  

Dangel-81 писал(а):

Раздача круглосуточно, только бы докачать)

докачаешь я надолго на раздачу! :film: :film: :film:pb.wtf



11-11-2014 16:03 Кошмар на улице Вязов: Антология Скачать торрент  

Откуда такое качество???
Я стал смотреть первую серию и охренел.
Фильм такой старые же. Как так клево сделали?pb.wtf



13-11-2014 07:10 Кошмар на улице Вязов: Антология Скачать торрент  

Stace писал(а):

Откуда такое качество???
Я стал смотреть первую серию и охренел.
Фильм такой старые же. Как так клево сделали?

сам охренел, руки-золото! pb.wtf



13-11-2014 16:08 Кошмар на улице Вязов: Антология Скачать торрент  

Axion писал(а):

Stace писал(а):

Откуда такое качество???
Я стал смотреть первую серию и охренел.
Фильм такой старые же. Как так клево сделали?

сам охренел, руки-золото!

Красава
Я просто слюнями покрылся....супер суперpb.wtf



05-08-2019 19:34 Кошмар на улице Вязов: Антология Скачать торрент  

Доброго времени. Станьте плиз на раздачу... Ну сил уж нет)))pb.wtf



    Дорогой пользователь! Огромная просьба, поблагодарите релизера, оцените раздачу и оставьте свои комментарий, если Вы скачали Кошмар на улице Вязов: Антология через торрент бесплатно! Внесите свою лепту в развитие PiratBit!
    Комментировать посты могут только пользователи прошедшие не сложную регистрацию
    Показать сообщения:    

    Кошмар на улице Вязов: Антология через торрент
    Скачать бесплатно Кошмар на улице Вязов: Антология
    Кошмар на улице Вязов: Антология скачать торрент
    Кошмар на улице Вязов: Антология смотреть онлайн
    Cкачать фильм Кошмар на улице Вязов: Антология бесплатно
    Кошмар на улице Вязов: Антология скачать торрент в хорошем качестве
    Кошмар на улице Вязов: Антология смотреть онлайн бесплатно в хорошем качестве


    Вы не можете начинать темы
    Вы не можете отвечать на сообщения
    Вы не можете редактировать свои сообщения
    Вы не можете удалять свои сообщения
    Вы не можете голосовать в опросах
    Вы не можете прикреплять файлы к сообщениям
    Вы можете скачивать файлы