новый адрес пиратбит piratbit
MEGA NEWS Получи личный уникальный адрес сайта и защити себя от блокировок. Внимание количество ограничено!!!

iTunes

1+1

iTunes

мы

iTunes

1

iTunes

Чернобыль

iTunes

Ральф против интернета

Лицензия

ПШазам

Лицензия

Игра престолов

Лицензия

30
pack

ВАЖНО

!!Акция!!

Alien_RageХит недели

RePack

Resident Evil 21

ИГРА 18+

pack

RePack

Metro:Exodus

!!Акция!!

Alien_Rage

RePack

fifa19

RePack

Assassins Creed: Odyssey

RePack

NEED FOR SPEED™ PAYBACK

3 сезон

9 сезон

Бесстыжие 9 сезон

Все сериалы

все сериалы на PB.wtf

RePack

FAR CRY 5
Ребята, катастрофически не хватает 1900р. для оплаты серверов за АВГУСТ (всвязи с блокировками трафик упал в 3 раза), 1-2р., выручайте.
  

Армия Гретхен / Eine Armee Gretchen (Эрвин С. Дитрих) [1973 г., триллер, драма, военный, DVDRip, Профессиональный одноголосый] pb.wtf

Армия Гретхен через торрент pb.wtf

Размер: 987 MB | Добавлен: 4 года 11 мес. назад | Торрент скачан:159 раз
Скачать  

08-11-2014 10:28 Армия Гретхен Скачать торрент  

Армия Гретхен / Eine Armee Gretchen
Год выпуска: 1973
Страна: Швейцария
Жанр: триллер, драма, военный
Продолжительность: 01:36:00
Перевод: Профессиональный одноголосый

Режиссер: Эрвин С. Дитрих
Продюссеры: Эрвин С. Дитрих, Стево Петрович
Сценарий: Эрвин С. Дитрих, Christine Lembach, Карл-Хайнц Хельмс-Лизенхофф

В ролях: Урсула Райт, Милан Бели, Элизабет Фельхнер, Вальтер Крауз, Анна Графф, Рената Каше, Клаудия Филерс, Александр Аллерсон, Карин Хофманн, Карл Мёнер, Хельмут Фёрнбахер, Marisa Feldy, Биргит Берген, Джудит Фритш, Hasso Preiß, Kurt Meinicke, Моника Марк, Моника Рохд, Карин Хеск, Клаус Кнут, Elke Boltenhagen, Мишель Жако, Frank Krones, Элизабет Фрикер, Эдуард Хубер, Christiane Lanius, Ольга Гебхард, Герард Аманн, Збигнев Сток, Йюрг Корэ, Oliver Domnik, Evelyn Raess, Uschi Stiegelmaier, Марита Фогельзанг

Описание: Доктор Кухн убеждает принять в ряды Вермахта женское вспомогательное подразделение для релаксации солдат на передовой, но если бы он знал, что из этого получится… Дитрих много работал с типами подобно Джессу Франко, так что я ожидал типичный, залитый кровью и шокирующий фильм типа Женщин в тюрьме, но вместо этого режиссеру удалось снять восхитительную эротическую комедию, в которой органично присутствует доля насилия. Девочки чудесные и счастливые суперсексуальные цыплята, немцы не смотрятся кровожадными ублюдками, а нормальными парнями, любящими красивых женщин и своего Фюрера. Вот только, когда некоторые девушки, попадая в плен, пытаются удовлетворить тем же и победителей, то за это приходится расплачиваться...

Качество: DVDRip
Формат: AVI
Видео кодек: XviD
Аудио кодек: MP3
Видео: Xvid 608x336, 25fps, 1231kbps
Аудио#1: 48000Hz stereo 128kbps (Русский)
Аудио#2: 48000Hz mono 60kbps (английский)



















General
Complete name : H:\КЛАССИКА\Призывница Гретта .avi
Format : AVI
Format/Info : Audio Video Interleave
File size : 987 MiB
Duration : 1h 36mn
Overall bit rate mode : Variable
Overall bit rate : 1 437 Kbps
Writing application : VirtualDubMod 1.5.10.3 (build 2550/release)
Writing library : VirtualDubMod build 2550/release

Video
ID : 0
Format : MPEG-4 Visual
Format profile : Advanced Simple@L5
Format settings, BVOP : Yes
Format settings, QPel : No
Format settings, GMC : No warppoints
Format settings, Matrix : Custom
Codec ID : XVID
Codec ID/Hint : XviD
Duration : 1h 36mn
Bit rate : 1 231 Kbps
Width : 608 pixels
Height : 336 pixels
Display aspect ratio : 16:9
Frame rate : 25.000 fps
Color space : YUV
Chroma subsampling : 4:2:0
Bit depth : 8 bits
Scan type : Progressive
Compression mode : Lossy
Bits/(Pixel*Frame) : 0.241
Stream size : 846 MiB (86%)
Writing library : XviD 1.2.0.dev47 (UTC 2006-11-01)

Audio #1
ID : 1
Format : MPEG Audio
Format version : Version 1
Format profile : Layer 3
Mode : Joint stereo
Codec ID : 55
Codec ID/Hint : MP3
Duration : 1h 36mn
Bit rate mode : Constant
Bit rate : 128 Kbps
Channel(s) : 2 channels
Sampling rate : 48.0 KHz
Compression mode : Lossy
Stream size : 87.9 MiB (9%)
Alignment : Split accross interleaves
Interleave, duration : 40 ms (1.00 video frame)
Interleave, preload duration : 500 ms

Audio #2
ID : 2
Format : MPEG Audio
Format version : Version 1
Format profile : Layer 3
Codec ID : 55
Codec ID/Hint : MP3
Duration : 1h 36mn
Bit rate mode : Variable
Bit rate : 60.5 Kbps
Nominal bit rate : 64.0 Kbps
Channel(s) : 1 channel
Sampling rate : 48.0 KHz
Compression mode : Lossy
Stream size : 41.6 MiB (4%)
Alignment : Aligned on interleaves
Interleave, duration : 24 ms (0.60 video frame)
Interleave, preload duration : 577 ms
Writing library : LAME3.97
Encoding settings : -m m -V 4 -q 2 -lowpass 16.5 --abr 64
pb.wtf



Скачать Армия Гретхен через торрент http://i67.fastpic.ru/big/2014/1108/b6/73bf403c4809f08d5639fb82bad0c9b6.jpg Скачать фильм Армия Гретхен через торрент бесплантно в хорошем качестве Описание: Доктор Кухн убеждает принять в ряды Вермахта женское вспомогательное подразделение для релаксации солдат на передовой, но если бы ... 8.3 10 11
Торрент: Зарегистрирован [2014-11-08 10:28] · скачан: 159 раз
Статус: √ проверено
Размер: 987 MB
Как cкачать? Как скачать Армия Гретхен через торрент | qTorrent


>> Регистрируемся здесь <<






Отзывы и комментарии о схеме читаем и пишем здесь: ---> Отзывы и комментарии о схеме

Новые благодарочки в телеграм довольных пользователей:
скриншот   скриншот   скриншот   скриншот   скриншот

08-11-2014 10:29 Армия Гретхен Скачать торрент  

Еще один фильмец на военную тему.pb.wtf



    Дорогой пользователь! Огромная просьба, поблагодарите релизера, оцените раздачу и оставьте свои комментарий, если Вы скачали Армия Гретхен через торрент бесплатно! Внесите свою лепту в развитие PiratBit!
    Комментировать посты могут только пользователи прошедшие не сложную регистрацию
    Показать сообщения:    

    Армия Гретхен через торрент
    Скачать бесплатно Армия Гретхен
    Армия Гретхен скачать торрент
    Армия Гретхен смотреть онлайн
    Cкачать фильм Армия Гретхен бесплатно
    Армия Гретхен скачать торрент в хорошем качестве
    Армия Гретхен смотреть онлайн бесплатно в хорошем качестве


    Вы не можете начинать темы
    Вы не можете отвечать на сообщения
    Вы не можете редактировать свои сообщения
    Вы не можете удалять свои сообщения
    Вы не можете голосовать в опросах
    Вы не можете прикреплять файлы к сообщениям
    Вы можете скачивать файлы