Мега распродажа FORZA HORIZON 4 ULTIMATE+ВСЕ DLC+ОНЛАЙН всего за 499р. 349 руб. (супер цена). Внимание количество ограничено!!!

Лицензия

30

iTunes

мы

iTunes

1

1 сезон

Чернобыль

1 сезон

Ральф против интернета

MVO

Покемон. Детектив Пикачу

8 сезон

Игра престолов

iTunes

1+1

ИГРА 18+

pack

ВАЖНО

!!Акция!!

Alien_RageХит недели

RePack

Resident Evil 21
pack

RePack

Metro:Exodus

!!Акция!!

Alien_Rage

RePack

fifa19

RePack

Assassins Creed: Odyssey

RePack

NEED FOR SPEED™ PAYBACK

3 сезон

9 сезон

Бесстыжие 9 сезон

Все сериалы

все сериалы на PB.wtf

RePack

FAR CRY 5
Ребята, катастрофически не хватает 2730р. для оплаты серверов за МАЙ (всвязи с блокировками трафик упал в 3 раза), 1-2р., выручайте.
  

Ильза: Хранительница гарема (фильм второй) / Ilsa, Harem Keeper of the Oil Sheiks (Дон Эдмондс / Don Edmonds) [1976 г., Триллер, DVDRip, Профессиональный одноголосый] pb.wtf

Ильза: Хранительница гарема через торрент pb.wtf

Размер: 1.37 GB | Добавлен: 4 года 7 мес. назад | Торрент скачан:172 раза
Скачать  

08-11-2014 16:29 Ильза: Хранительница гарема Скачать торрент  

Ильза: Хранительница гарема (фильм второй) / Ilsa Harem Keeper of the Oil Sheiks
Год выпуска: 1976
Страна: Канада, США
Жанр: Триллер
Продолжительность: 01:33:00
Перевод: Профессиональный одноголосый

Режиссер: Дон Эдмондс / Don Edmonds

В ролях: Диан Торн, Макс Тэйер, Jerry Delony, Уши Дигард, Шарон Келли, Haji, Таня Бойд, Мэрелин Джои, Су Линг, Ричард Кеннеди.

Описание: « Второй фильм из серии про зловредную Ильзу. “Со зверской яростью она поработила империю и потрясла мир!” »
Несмотря на гибель в финале «Ильзы — волчицы СС» белокурая бестия в исполнении Дайан Торн возвращается в качестве хранительницы гарема и советницы арабского шейха. По ходу вялого действия Ильза влюбляется в американского шпиона и, чтобы спасти его от гибели после разоблачения, устраивает государственный переворот.

Качество: DVDRip
Формат: AVI
Видео кодек: XviD
Аудио кодек: AC3
Видео: 720x400, 23.976fps 1895kbps
Аудио#1: Dolby AC3 48000Hz stereo 192kbp























General
Complete name : H:\КЛАССИКА\Ильза Хранительница гарема нефтяного шейха фильм 2.avi
Format : AVI
Format/Info : Audio Video Interleave
Format profile : OpenDML
File size : 1.37 GiB
Duration : 1h 33mn
Overall bit rate : 2 100 Kbps
Writing application : Lavf51.12.1

Video
ID : 0
Format : MPEG-4 Visual
Format profile : Simple@L1
Format settings, BVOP : No
Format settings, QPel : No
Format settings, GMC : No warppoints
Format settings, Matrix : Default (H.263)
Codec ID : FMP4
Duration : 1h 33mn
Bit rate : 1 896 Kbps
Width : 720 pixels
Height : 400 pixels
Display aspect ratio : 16:9
Frame rate : 23.976 fps
Color space : YUV
Chroma subsampling : 4:2:0
Bit depth : 8 bits
Scan type : Progressive
Compression mode : Lossy
Bits/(Pixel*Frame) : 0.275
Stream size : 1.23 GiB (90%)
Writing library : Lavc51.40.4

Audio
ID : 1
Format : AC-3
Format/Info : Audio Coding 3
Mode extension : CM (complete main)
Format settings, Endianness : Big
Codec ID : 2000
Duration : 1h 33mn
Bit rate mode : Constant
Bit rate : 192 Kbps
Channel(s) : 2 channels
Channel positions : Front: L R
Sampling rate : 48.0 KHz
Bit depth : 16 bits
Compression mode : Lossy
Stream size : 128 MiB (9%)
Alignment : Aligned on interleaves
Interleave, duration : 32 ms (0.77 video frame)
Interleave, preload duration : 32 ms
pb.wtf



Скачать Ильза: Хранительница гарема через торрент http://i64.fastpic.ru/big/2014/1108/75/30618192eb944308f1cbee0ff0293575.jpg Скачать фильм Ильза: Хранительница гарема через торрент бесплантно в хорошем качестве Описание: « Второй фильм из серии про зловредную Ильзу. “Со зверской яростью она поработила империю и потрясла мир!” » Несмотря на гибель в ... 8.4 10 12
Info! Золотая раздача, скачанное не засчитывается.
Торрент: Зарегистрирован [2014-11-08 16:29] · скачан: 172 раз
Статус: √ проверено
Размер: 1.37 GB
Как cкачать? Как скачать Ильза: Хранительница гарема через торрент | qTorrent


>> Регистрируемся здесь <<






Отзывы и комментарии о схеме читаем и пишем здесь: ---> Отзывы и комментарии о схеме

Новые благодарочки в телеграм довольных пользователей:
скриншот   скриншот   скриншот   скриншот   скриншот

08-11-2014 16:33 Ильза: Хранительница гарема Скачать торрент  

Ну вот как обещал продолжение серии фильмов про Ильзу.
На подходе третий фильм :))))pb.wtf



08-11-2014 17:32 Ильза: Хранительница гарема Скачать торрент  

Это порнушка германская что ли?pb.wtf



08-11-2014 17:40 Ильза: Хранительница гарема Скачать торрент  

operokunp писал(а):

[qpost=undefined]Это порнушка германская что ли?

Порно я раздаю здесь http://pb.wtf/cat/13/ (кстати советую есть очень неприличные фильмы) а здесь только классика и то что я смотрел в 80тые в видеосалонах, так что: НИКАКОГО ПОРНО!!!!!!
А КТО НЕДОВОЛЕН ПРОХОДИТ СТОРОНОЙ ЧТОБ НЕ МЕШАТЬ ДРУГИМ!!!!
pb.wtf



08-11-2014 19:48 Ильза: Хранительница гарема Скачать торрент  

Magnat писал(а):

operokunp писал(а):

[qpost=undefined]Это порнушка германская что ли?

Порно я раздаю здесь http://pb.wtf/cat/13/ (кстати советую есть очень неприличные фильмы) а здесь только классика и то что я смотрел в 80тые в видеосалонах, так что: НИКАКОГО ПОРНО!!!!!!
А КТО НЕДОВОЛЕН ПРОХОДИТ СТОРОНОЙ ЧТОБ НЕ МЕШАТЬ ДРУГИМ!!!!

вот именно - чтоб не мешать другим - раздавайте порно в разделе "порно". вы засоряете ленту, обходя таким способом фильтр.
то, что это старое порно, с небритыми мохнатками - делает его только "классическим порно", но не "классическим фильмом".pb.wtf



08-11-2014 20:14 Ильза: Хранительница гарема Скачать торрент  

sergunka писал(а):

[qpost=undefined]вот именно - чтоб не мешать другим

Пока только ты один засоряешь эфир :))))) Остальные жмут кнопку спасибо.
..... и кто б выступал, пользователь с нулем по релизам за 4 с лишним года:)))))
Ну залей что ни будь классическое, покажи пример что не порно, а пока халявишь дыши в сторону.....pb.wtf



    Дорогой пользователь! Огромная просьба, поблагодарите релизера, оцените раздачу и оставьте свои комментарий, если Вы скачали Ильза: Хранительница гарема через торрент бесплатно! Внесите свою лепту в развитие PiratBit!
    Комментировать посты могут только пользователи прошедшие не сложную регистрацию
    Показать сообщения:    

    Ильза: Хранительница гарема через торрент
    Скачать бесплатно Ильза: Хранительница гарема
    Ильза: Хранительница гарема скачать торрент
    Ильза: Хранительница гарема смотреть онлайн
    Cкачать фильм Ильза: Хранительница гарема бесплатно
    Ильза: Хранительница гарема скачать торрент в хорошем качестве
    Ильза: Хранительница гарема смотреть онлайн бесплатно в хорошем качестве


    Вы не можете начинать темы
    Вы не можете отвечать на сообщения
    Вы не можете редактировать свои сообщения
    Вы не можете удалять свои сообщения
    Вы не можете голосовать в опросах
    Вы не можете прикреплять файлы к сообщениям
    Вы можете скачивать файлы