MEGA SALE -50% FORZA HORIZON 4 ULTIMATE+ВСЕ DLC+ОНЛАЙН всего за 599р. 299 руб. (супер цена). Внимание количество ограничено!!!

iTunes

1+1

iTunes

мы

iTunes

1

iTunes

Чернобыль

1 сезон

Ральф против интернета

Лицензия

ПШазам

Лицензия

Игра престолов

Лицензия

30
pack

ВАЖНО

!!Акция!!

Alien_RageХит недели

RePack

Resident Evil 21

ИГРА 18+

pack

RePack

Metro:Exodus

!!Акция!!

Alien_Rage

RePack

fifa19

RePack

Assassins Creed: Odyssey

RePack

NEED FOR SPEED™ PAYBACK

3 сезон

9 сезон

Бесстыжие 9 сезон

Все сериалы

все сериалы на PB.wtf

RePack

FAR CRY 5
Ребята, катастрофически не хватает 7730р. для оплаты серверов за ИЮЛЬ (всвязи с блокировками трафик упал в 3 раза), 1-2р., выручайте.
  

99 женщин / 99 Women (Хесус Франко) [1969 г., Драма, Триллер, DVDRip, Профессиональный многоголосый] pb.wtf

99 женщин через торрент pb.wtf

Размер: 1.45 GB | Добавлен: 4 года 9 мес. назад | Торрент скачан:119 раз
Скачать  

08-11-2014 19:21 99 женщин Скачать торрент  

99 женщин / 99 Women
Год выпуска: 1969
Страна: Великобритания, Италия, Испания, Германия (ФРГ),
Кинокомпания: Cinematografica Associati, Corona Filmproduktion
Hesperia Films, Towers of London
Жанр: Драма, Триллер
Продолжительность: 01:29:34
Перевод: Профессиональный многоголосый

Режиссер: Хесус Франко
Продюссер: Луис Ласо, Гарри Алан Тауэрс
Сценарий: Карло Фадда, Эния Корвин
Оператор: Мануэль Мерино
Композитор: Бруно Николаи


В ролях: Мария Шелл, Херберт Лом, Мерседес МакКэмбридж, Лучана Палуцци, Мария Ром, Розальба Нери, Элиза Монтес, Валентина Годой, Хосе Мария Бланко, Эльза Забала

Описание: Вместе с созвездием известных актрис мы попадаем на остров-тюрьму, из которой невозможно бежать. Здесь процветает насилие, сексуальные оргии, лесбиянство, садизм. В этот момент в тюрьме появляется узница под номером 99, которая не хочет мириться со здешними порядками…

Качество: DVDRip
Формат: AVI
Видео кодек: XviD
Аудио кодек: AC3
Видео: 688x384 (1.79:1), 23.976 fps, XviD build 50 ~1922 kbps
Аудио#1: 48 kHz, AC3 Dolby Digital, 2/0 (L,R) ch, ~192.00 kbps avg (русский)
Аудио#2: 48 kHz, AC3 Dolby Digital, 2/0 (L,R) ch, ~192.00 kbps avg (английский















General
Complete name : H:\КЛАССИКА\99 Женщин.avi
Format : AVI
Format/Info : Audio Video Interleave
File size : 1.45 GiB
Duration : 1h 29mn
Overall bit rate : 2 321 Kbps
Writing application : VirtualDubMod 1.5.10.2 (build 2540/release)
Writing library : VirtualDubMod build 2540/release

Video
ID : 0
Format : MPEG-4 Visual
Format profile : Advanced Simple@L5
Format settings, BVOP : Yes
Format settings, QPel : No
Format settings, GMC : No warppoints
Format settings, Matrix : Default (MPEG)
Codec ID : XVID
Codec ID/Hint : XviD
Duration : 1h 29mn
Bit rate : 1 923 Kbps
Width : 688 pixels
Height : 384 pixels
Display aspect ratio : 16:9
Frame rate : 23.976 fps
Color space : YUV
Chroma subsampling : 4:2:0
Bit depth : 8 bits
Scan type : Progressive
Compression mode : Lossy
Bits/(Pixel*Frame) : 0.304
Stream size : 1.20 GiB (83%)
Writing library : XviD 1.2.1 (UTC 2008-12-04)

Audio #1
ID : 1
Format : AC-3
Format/Info : Audio Coding 3
Mode extension : CM (complete main)
Format settings, Endianness : Big
Codec ID : 2000
Duration : 1h 29mn
Bit rate mode : Constant
Bit rate : 192 Kbps
Channel(s) : 2 channels
Channel positions : Front: L R
Sampling rate : 48.0 KHz
Bit depth : 16 bits
Compression mode : Lossy
Stream size : 123 MiB (8%)
Alignment : Split accross interleaves
Interleave, duration : 42 ms (1.00 video frame)
Interleave, preload duration : 500 ms

Audio #2
ID : 2
Format : AC-3
Format/Info : Audio Coding 3
Mode extension : CM (complete main)
Format settings, Endianness : Big
Codec ID : 2000
Duration : 1h 29mn
Bit rate mode : Constant
Bit rate : 192 Kbps
Channel(s) : 2 channels
Channel positions : Front: L R
Sampling rate : 48.0 KHz
Bit depth : 16 bits
Compression mode : Lossy
Stream size : 123 MiB (8%)
Alignment : Split accross interleaves
Interleave, duration : 42 ms (1.00 video frame)
Interleave, preload duration : 500 ms
pb.wtf



Скачать 99 женщин через торрент http://i68.fastpic.ru/big/2014/1108/4f/dcc537ebe629ecd658191fcd5fd0544f.jpg Скачать фильм 99 женщин через торрент бесплантно в хорошем качестве Описание: Вместе с созвездием известных актрис мы попадаем на остров-тюрьму, из которой невозможно бежать. Здесь процветает насилие, ... 8.3 10 7
Торрент: Зарегистрирован [2014-11-08 19:21] · скачан: 119 раз
Статус: √ проверено
Размер: 1.45 GB
Как cкачать? Как скачать 99 женщин через торрент | qTorrent

% Раздел Тема Автор DL S | L
Фильмы с авторской озвучкой [ 4.32 GB ] Женщина-оса / The Wasp Woman [1995 DVD5 ] 2x[AVO] + [VO] (Котов killermax2013 Скачать
1 | 0
Фильмы [HD 720p, 1080p] (Хороший звук DUB, MVO) [ 14.78 GB ] Маленькие женщины / Little Women [1994 BDRip 1080p by msltel] 3 x MVO DVO AVO msltel Скачать
2 | 0
Фильмы [HD 720p, 1080p] (Хороший звук DUB, MVO) [ 6.17 GB ] Маленькие женщины / Little Women [1994 BDRip 720p by msltel] 3 x MVO DVO AVO msltel Скачать
1 | 0
Фильмы до 2000 г. [ 3.01 GB ] Запах женщины / Scent of a Woman [1992 HDRip-AVC] feldeger Скачать
1 | 0
Фильмы до 2000 г. [ 1.45 GB ] Маленькие женщины / Little Women [1994 г HDRip] 2xMVO koenig Скачать
1 | 0
Фильмы с авторской озвучкой [ 1.46 GB ] Женщина-оса / The Wasp Woman [1996 DVDRip] 3 х AVO point.td Скачать
1 | 0
Порно фильмы с сюжетом [ 1.44 GB ] Опасная Женщина / Dangerous Woman / Harcelement Au Feminin [1999 Feature DVDRip Оригинал] Pir@tya2010 Скачать
2 | 0


Последний раз редактировалось: Magnat (2014-11-08 19:34), всего редактировалось 2 раз(а)


>> Регистрируемся здесь <<






Отзывы и комментарии о схеме читаем и пишем здесь: ---> Отзывы и комментарии о схеме

Новые благодарочки в телеграм довольных пользователей:
скриншот   скриншот   скриншот   скриншот   скриншот

08-11-2014 19:23 99 женщин Скачать торрент  

«99 женщин» — эксплуатационный Women in Prison фильм 1969 года режиссёра Хесуса Франко, первый его фильм данной категории. Премьера фильма состоялась 14 марта 1969 года. В 1974 году вышло продолжение фильма под названием «Женский квартал».pb.wtf



    Дорогой пользователь! Огромная просьба, поблагодарите релизера, оцените раздачу и оставьте свои комментарий, если Вы скачали 99 женщин через торрент бесплатно! Внесите свою лепту в развитие PiratBit!
    Комментировать посты могут только пользователи прошедшие не сложную регистрацию
    Показать сообщения:    

    99 женщин через торрент
    Скачать бесплатно 99 женщин
    99 женщин скачать торрент
    99 женщин смотреть онлайн
    Cкачать фильм 99 женщин бесплатно
    99 женщин скачать торрент в хорошем качестве
    99 женщин смотреть онлайн бесплатно в хорошем качестве


    Вы не можете начинать темы
    Вы не можете отвечать на сообщения
    Вы не можете редактировать свои сообщения
    Вы не можете удалять свои сообщения
    Вы не можете голосовать в опросах
    Вы не можете прикреплять файлы к сообщениям
    Вы можете скачивать файлы