Ссылка на приватное зеркало нашего сайта всего за 1$. Внимание количество ограничено!!!

2 сезон

iTunes

1 сезон

1

iTunes

iTunes

iTunes

1 сезон

RePack

30

ИГРА 18+

pack

ВАЖНО

!!Акция!!

Alien_RageХит недели

RePack

MK11
pack

Забери бонус

RePack

jed

!!Акция!!

Alien_Rage

RePack

fifa19

RePack

Assassins Creed: Odyssey

RePack

NEED FOR SPEED™ PAYBACK

4 сезон

9 сезон

Бесстыжие 9 сезон

Все сериалы

все сериалы на PB.wtf

RePack

FAR CRY 5
  

Башня Дьявола / Devil's Tower (Owen Tooth) [2014, Великобритания, ужасы, HDRip) VO pb.wtf

Башня Дьявола через торрент pb.wtf

Размер: 1.38 GB | Добавлен: 5 лет 11 мес. назад | Торрент скачан:182 раза
Скачать  

09-11-2014 05:07 Башня Дьявола Скачать торрент  

Башня Дьявола / Devil's Tower
«Высокий дом. Низкая аренда. Никаких шансов»


  • Год выпуска: 2014
  • Страна: Великобритания
  • Жанр: ужасы
  • Продолжительность: 01:24:08
  • Перевод: Любительский (одноголосый) [Ворон]

  • Режиссер: Owen Tooth
  • В ролях:

    Джейсон Мьюз (Sid), Роксанна Паллетт (Sarah MacColl), Фрэнсис Руффель (Kim), Джессика Джейн Клемент (Kate), Эмма Бакли (Lucy), Квеку Амоа (Partygoer), Питер Баррет (Marc), Jessica Ann Bonner (Beverly), Джейсон Томас Браун (Zombie), Элисон Кэрролл (Fiona), Адам Дэкин (Jon), Emily Denton-Davies (Beryl)

  • Описание:
    Не все было просто в жизни молодой девушки Сары, а особенно не складывались ее отношения с матерью, которая ее постоянно унижала и оскорбляла, и теперь Сара наконец-то вырвалась из оков своей прежней жизни, и поселилась в многоквартирном доме. Теперь девушка надеется начать новую жизнь, вот только в ее квартире появляется мстительный призрак война орды, зомби проявляет особый интерес к молодой особе и поэтому ей придется вступить в бой за выживание.
  • Рейтинг:



  • Качество: HDRip
  • Формат: :AVI
  • Видео кодек: XviD
  • Аудио кодек: AC3
  • Видео: 720x304 (2.35:1), 1941 kbps, 24 fps, 0,370 bpp
  • Аудио №1: Русский 2.0 / 48 kHz / 192 kbps / 16 bit
  • Аудио №2: Английский 2.0 / 48 kHz / 192 kbps / 16 bit
  • Релиз от: GEKADOL

    Код:

    General
    Complete name                            : I:\Devils.Tower.2014.L1.HDRip.1400MB.avi
    Format                                   : AVI
    Format/Info                              : Audio Video Interleave
    File size                                : 1.38 GiB
    Duration                                 : 1h 24mn
    Overall bit rate                         : 2 340 Kbps
    Writing application                      : VirtualDubMod 1.5.10.3 | www.virtualdub-fr.org || (build 2550/release)
    Writing library                          : VirtualDubMod build 2550/release

    Video
    ID                                       : 0
    Format                                   : MPEG-4 Visual
    Format profile                           : Advanced Simple@L5
    Format settings, BVOP                    : 1
    Format settings, QPel                    : No
    Format settings, GMC                     : No warppoints
    Format settings, Matrix                  : Custom
    Codec ID                                 : XVID
    Codec ID/Hint                            : XviD
    Duration                                 : 1h 24mn
    Bit rate                                 : 1 942 Kbps
    Width                                    : 720 pixels
    Height                                   : 304 pixels
    Display aspect ratio                     : 2.35:1
    Frame rate                               : 24.000 fps
    Color space                              : YUV
    Chroma subsampling                       : 4:2:0
    Bit depth                                : 8 bits
    Scan type                                : Progressive
    Compression mode                         : Lossy
    Bits/(Pixel*Frame)                       : 0.370
    Stream size                              : 1.14 GiB (83%)
    Writing library                          : XviD 73

    Audio #1
    ID                                       : 1
    Format                                   : AC-3
    Format/Info                              : Audio Coding 3
    Mode extension                           : CM (complete main)
    Codec ID                                 : 2000
    Duration                                 : 1h 24mn
    Bit rate mode                            : Constant
    Bit rate                                 : 192 Kbps
    Channel(s)                               : 2 channels
    Channel positions                        : Front: L R
    Sampling rate                            : 48.0 KHz
    Bit depth                                : 16 bits
    Compression mode                         : Lossy
    Stream size                              : 116 MiB (8%)
    Alignment                                : Split accross interleaves
    Interleave, duration                     : 42 ms (1.00 video frame)
    Interleave, preload duration             : 500 ms

    Audio #2
    ID                                       : 2
    Format                                   : AC-3
    Format/Info                              : Audio Coding 3
    Mode extension                           : CM (complete main)
    Codec ID                                 : 2000
    Duration                                 : 1h 24mn
    Bit rate mode                            : Constant
    Bit rate                                 : 192 Kbps
    Channel(s)                               : 2 channels
    Channel positions                        : Front: L R
    Sampling rate                            : 48.0 KHz
    Bit depth                                : 16 bits
    Compression mode                         : Lossy
    Stream size                              : 116 MiB (8%)
    Alignment                                : Split accross interleaves
    Interleave, duration                     : 42 ms (1.00 video frame)
    Interleave, preload duration             : 500 ms


    Скриншоты:



    pb.wtf



  • Скачать Башня Дьявола через торрент http://i64.fastpic.ru/big/2014/1109/e5/e7806d41668e19e8c8f9ff80673026e5.jpg Скачать фильм Башня Дьявола через торрент бесплантно в хорошем качестве Описание: Не все было просто в жизни молодой девушки Сары, а особенно не складывались ее отношения с матерью, которая ее постоянно унижала ... 10 10 5
    Торрент: Зарегистрирован [2014-11-09 05:07] · скачан: 182 раз
    Статус: T временная
    Размер: 1.38 GB
    Как cкачать? Как скачать Башня Дьявола через торрент | qTorrent

    28-11-2019 20:33  

    Отключить всю рекламу на сайте

      Дорогой пользователь! Огромная просьба, поблагодарите релизера, оцените раздачу и оставьте свои комментарий, если Вы скачали Башня Дьявола через торрент бесплатно! Внесите свою лепту в развитие PiratBit!
      Комментировать посты могут только пользователи прошедшие не сложную регистрацию
      Показать сообщения:    

      Башня Дьявола через торрент
      Скачать бесплатно Башня Дьявола
      Башня Дьявола скачать торрент
      Башня Дьявола смотреть онлайн
      Cкачать фильм Башня Дьявола бесплатно
      Башня Дьявола скачать торрент в хорошем качестве
      Башня Дьявола смотреть онлайн бесплатно в хорошем качестве


      Вы не можете начинать темы
      Вы не можете отвечать на сообщения
      Вы не можете редактировать свои сообщения
      Вы не можете удалять свои сообщения
      Вы не можете голосовать в опросах
      Вы не можете прикреплять файлы к сообщениям
      Вы можете скачивать файлы