Ссылка на приватное зеркало нашего сайта всего за 1$. Внимание количество ограничено!!!

2 сезон

iTunes

1 сезон

1

iTunes

iTunes

iTunes

1 сезон

RePack

30

ИГРА 18+

pack

ВАЖНО

!!Акция!!

Alien_RageХит недели

RePack

MK11
pack

Забери бонус

RePack

jed

!!Акция!!

Alien_Rage

RePack

fifa19

RePack

Assassins Creed: Odyssey

RePack

NEED FOR SPEED™ PAYBACK

4 сезон

9 сезон

Бесстыжие 9 сезон

Все сериалы

все сериалы на PB.wtf

RePack

FAR CRY 5
  

Люди под лестницей / The People Under the Stairs (Уэс Крэйвен) [1991 г., ужасы, триллер, комедия, детектив, BDRip 720p, DUB, MVO, AVO] pb.wtf

Люди под лестницей через торрент pb.wtf

Размер: 8.06 GB | Добавлен: 5 лет 11 мес. назад | Торрент скачан:41 раз
Скачать  

09-11-2014 07:51 Люди под лестницей Скачать торрент  

Люди под лестницей / The People Under the Stairs
Год выпуска: 1991
Страна: США
Жанр: ужасы, триллер, комедия, детектив
Продолжительность: 01:41:56
Перевод: Дубляж, Многоголосый закадровый, Авторский
Субтитры: Russian, English

Режиссер: Уэс Крэйвен
Продюссер: Стюарт М. Бессер, Марианн Маддалена, Дикси Дж. Кэпп
Сценарий: Уэс Крэйвен
Бюджет: $6 000 000
Премьера в мире: 1 ноября 1991

IMDB 6.30 (20 268)


В ролях: Брэндон Квинтин Адамс, Эверет МакГилл, Уэнди Роби, А.Дж. Ленджер, Винг Реймз, Шон Уэйлен, Билл Коббс, Келли Джо Минтер, Джереми Робертс, Конни Мари Бразелтон, Элиза Мартиросова

Описание: В каждом городе есть дом, о котором рассказывают ужасные вещи. Взрослые говорят об этом месте шепотом, а все соседские ребятишки обходят его стороной. От таких мрачных домов веет сыростью и смертью. И вряд ли найдется смельчак, который, даже на спор отважится приблизиться к страшному месту в сумраке ночи.Но случилось так, что однажды обыкновенный десятилетний мальчик вступил в жуткое жилище. Тот кошмар, который пришлось испытать маленькому герою, невозможно описать ми.

Доп. информация: Сохранены оригинальные чаптеры как на Blu-ray.

Качество: BDRip 720p
Формат: MKV
Видео кодек: AVC
Аудио кодек: DTS / AC3 / FLAC 2.0
Видео: 1280x704 at 23.976 fps, x264@L4.1, ~7877 kbps avg
Аудио#1: Russian: 48 kHz/16-bit, DTS 2.0, ~768.00 kbps avg |Дубляж|
Аудио#2: Russian: 48 kHz, AC3, 2/0 (L,R) ch, ~192.00 kbps avg |Многоголосый закадровый, R5|
Аудио#3: Russian: 48 kHz, AC3, 2/0 (L,R) ch, ~192.00 kbps avg |Многоголосый закадровый, Премьер|
Аудио#4: Russian: 48 kHz, AC3, 2/0 (L,R) ch, ~192.00 kbps avg |Многоголосый закадровый, СТС|
Аудио#5: Russian: 48 kHz/16-bit, DTS 2.0, ~510.00 kbps avg |Одноголосый закадровый, А. Гаврилов|
Аудио#6: Ukrainian: 48 kHz, AC3, 2/0 (L,R) ch, ~192.00 kbps avg |Многоголосый закадровый, Новый канал|
Аудио#7: English: 48 kHz/16-bit, FLAC 2.0, ~1325.00 kbps avg
Аудио#8: English: 48 kHz, ACC, 2/0 (L,R) ch, ~69.00 kbps avg |Commentary with star Brandon Quintin Adams, moderated by Calum Waddell|
General
Unique ID : 204388080411431878771814081710075987600 (0x99C3B6621371B2BA9F8869A9BD24C690)
Complete name : /home/sb1855/files/The.People.Under.the.Stairs.1991.720p.BluRay.5xRus.Ukr.Eng.HDCLUB-SbR.mkv
Format : Matroska
Format version : Version 4 / Version 2
File size : 8.06 GiB
Duration : 1h 41mn
Overall bit rate mode : Variable
Overall bit rate : 11.3 Mbps
Encoded date : UTC 2014-11-05 16:12:42
Writing application : mkvmerge v7.3.0 ('Nouages') 64bit built on Oct 22 2014 18:53:34
Writing library : libebml v1.3.0 + libmatroska v1.4.1
Attachment : Yes

Video
ID : 1
Format : AVC
Format/Info : Advanced Video Codec
Format profile : High@L4.1
Format settings, CABAC : Yes
Format settings, ReFrames : 9 frames
Codec ID : V_MPEG4/ISO/AVC
Duration : 1h 41mn
Width : 1 280 pixels
Height : 704 pixels
Display aspect ratio : 16:9
Frame rate : 23.976 fps
Color space : YUV
Chroma subsampling : 4:2:0
Bit depth : 8 bits
Scan type : Progressive
Writing library : x264 core 142 r2479kMod dd79a61
Encoding settings : cabac=1 / ref=9 / deblock=1:-3:-3 / analyse=0x3:0x133 / me=tesa / subme=10 / psy=1 / fade_compensate=0.00 / psy_rd=1.00:0.05 / mixed_ref=1 / me_range=24 / chroma_me=1 / trellis=2 / 8x8dct=1 / cqm=0 / deadzone=21,11 / fast_pskip=0 / chroma_qp_offset=-3 / threads=6 / lookahead_threads=1 / sliced_threads=0 / nr=0 / decimate=1 / interlaced=0 / bluray_compat=0 / constrained_intra=0 / fgo=0 / bframes=12 / b_pyramid=2 / b_adapt=2 / b_bias=0 / direct=3 / weightb=1 / open_gop=0 / weightp=2 / keyint=250 / keyint_min=23 / scenecut=40 / intra_refresh=0 / rc_lookahead=60 / rc=crf / mbtree=0 / crf=18.5000 / qcomp=0.65 / qpmin=0 / qpmax=69 / qpstep=4 / vbv_maxrate=62500 / vbv_bufsize=78125 / crf_max=0.0 / nal_hrd=none / filler=0 / ip_ratio=1.30 / pb_ratio=1.20 / aq=3:0.60
Language : English
Default : Yes
Forced : No
Matrix coefficients : BT.709-5, BT.1361, IEC 61966-2-4 709, SMPTE RP177

Audio #1
ID : 2
Format : DTS
Format/Info : Digital Theater Systems
Codec ID : A_DTS
Duration : 1h 41mn
Bit rate mode : Constant
Bit rate : 754 Kbps
Channel(s) : 2 channels
Channel positions : Front: L R
Sampling rate : 48.0 KHz
Bit depth : 24 bits
Compression mode : Lossy
Stream size : 550 MiB (7%)
Title : ??????
Language : Russian
Default : Yes
Forced : No

Audio #2
ID : 3
Format : AC-3
Format/Info : Audio Coding 3
Mode extension : CM (complete main)
Format settings, Endianness : Big
Codec ID : A_AC3
Duration : 1h 41mn
Bit rate mode : Constant
Bit rate : 192 Kbps
Channel(s) : 2 channels
Channel positions : Front: L R
Sampling rate : 48.0 KHz
Bit depth : 16 bits
Compression mode : Lossy
Stream size : 140 MiB (2%)
Title : ???????????? ??????????, R5
Language : Russian
Default : No
Forced : No

Audio #3
ID : 4
Format : AC-3
Format/Info : Audio Coding 3
Mode extension : CM (complete main)
Format settings, Endianness : Big
Codec ID : A_AC3
Duration : 1h 41mn
Bit rate mode : Constant
Bit rate : 192 Kbps
Channel(s) : 2 channels
Channel positions : Front: L R
Sampling rate : 48.0 KHz
Bit depth : 16 bits
Compression mode : Lossy
Stream size : 140 MiB (2%)
Title : ???????????? ??????????, ???????
Language : Russian
Default : No
Forced : No

Audio #4
ID : 5
Format : AC-3
Format/Info : Audio Coding 3
Mode extension : CM (complete main)
Format settings, Endianness : Big
Codec ID : A_AC3
Duration : 1h 41mn
Bit rate mode : Constant
Bit rate : 192 Kbps
Channel(s) : 2 channels
Channel positions : Front: L R
Sampling rate : 48.0 KHz
Bit depth : 16 bits
Compression mode : Lossy
Stream size : 140 MiB (2%)
Title : ???????????? ??????????, ???
Language : Russian
Default : No
Forced : No

Audio #5
ID : 6
Format : DTS
Format/Info : Digital Theater Systems
Codec ID : A_DTS
Duration : 1h 41mn
Bit rate mode : Constant
Bit rate : 512 Kbps
Channel(s) : 2 channels
Channel positions : Front: L R
Sampling rate : 48.0 KHz
Bit depth : 24 bits
Compression mode : Lossy
Stream size : 373 MiB (5%)
Title : ??????????? ??????????, ?. ????????
Language : Russian
Default : No
Forced : No

Audio #6
ID : 7
Format : AC-3
Format/Info : Audio Coding 3
Mode extension : CM (complete main)
Format settings, Endianness : Big
Codec ID : A_AC3
Duration : 1h 41mn
Bit rate mode : Constant
Bit rate : 192 Kbps
Channel(s) : 2 channels
Channel positions : Front: L R
Sampling rate : 48.0 KHz
Bit depth : 16 bits
Compression mode : Lossy
Stream size : 140 MiB (2%)
Title : ???????????? ??????????, ????? ?????
Language : Ukrainian
Default : No
Forced : No

Audio #7
ID : 8
Format : FLAC
Format/Info : Free Lossless Audio Codec
Codec ID : A_FLAC
Duration : 1h 41mn
Bit rate mode : Variable
Channel(s) : 2 channels
Sampling rate : 48.0 KHz
Bit depth : 24 bits
Writing library : libFLAC 1.2.1 (UTC 2007-09-17)
Language : English
Default : No
Forced : No

Audio #8
ID : 9
Format : AAC
Format/Info : Advanced Audio Codec
Format profile : LC
Codec ID : A_AAC
Duration : 1h 41mn
Channel(s) : 2 channels
Channel positions : Front: L R
Sampling rate : 48.0 KHz
Compression mode : Lossy
Delay relative to video : 9ms
Title : commentary
Language : English
Default : No
Forced : No

Text #1
ID : 10
Format : UTF-8
Codec ID : S_TEXT/UTF8
Codec ID/Info : UTF-8 Plain Text
Language : Russian
Default : No
Forced : No

Text #2
ID : 11
Format : UTF-8
Codec ID : S_TEXT/UTF8
Codec ID/Info : UTF-8 Plain Text
Language : English
Default : No
Forced : No

Text #3
ID : 12
Format : UTF-8
Codec ID : S_TEXT/UTF8
Codec ID/Info : UTF-8 Plain Text
Title : SDH
Language : English
Default : No
Forced : No

Menu
00:00:00.000 : en:00:00:00.000
00:05:16.983 : en:00:05:16.983
00:11:31.232 : en:00:11:31.232
00:16:12.346 : en:00:16:12.346
00:22:11.121 : en:00:22:11.121
00:26:25.250 : en:00:26:25.250
00:34:19.015 : en:00:34:19.015
00:41:25.858 : en:00:41:25.858
00:47:24.258 : en:00:47:24.258
00:52:10.336 : en:00:52:10.336
00:57:08.383 : en:00:57:08.383
01:00:07.562 : en:01:00:07.562
01:06:10.550 : en:01:06:10.550
01:11:16.772 : en:01:11:16.772
01:16:05.811 : en:01:16:05.811
01:23:38.222 : en:01:23:38.222
01:29:38.999 : en:01:29:38.999
01:38:22.688 : en:01:38:22.688

скриншот   скриншот   скриншот  pb.wtf



Скачать Люди под лестницей через торрент http://pic.kartinco.top/images/8/7feve.jpg Скачать фильм Люди под лестницей через торрент бесплантно в хорошем качестве Описание: В каждом городе есть дом, о котором рассказывают ужасные вещи. Взрослые говорят об этом месте шепотом, а все соседские ребятишки ... 9.3 10 7
Торрент: Зарегистрирован [2014-11-09 08:37] · скачан: 41 раз
Статус: √ проверено
Размер: 8.06 GB
Как cкачать? Как скачать Люди под лестницей через торрент | qTorrent



Последний раз редактировалось: кэп (2014-11-09 08:37), всего редактировалось 1 раз

28-11-2019 20:33  

Отключить всю рекламу на сайте

09-11-2014 08:31 Люди под лестницей Скачать торрент  

эээээээээээээ, а че с раздачей????pb.wtf
Kкэп писал(а):

Исправлено.



09-11-2014 08:59 Люди под лестницей Скачать торрент  

спасибо КЭП :)pb.wtf



09-11-2014 17:56 Люди под лестницей Скачать торрент  

А что с описанием? "Тот кошмар...невозможно описать ми" (с)
Типа мимими какой кошмар? sarcasticpb.wtf



    Дорогой пользователь! Огромная просьба, поблагодарите релизера, оцените раздачу и оставьте свои комментарий, если Вы скачали Люди под лестницей через торрент бесплатно! Внесите свою лепту в развитие PiratBit!
    Комментировать посты могут только пользователи прошедшие не сложную регистрацию
    Показать сообщения:    

    Люди под лестницей через торрент
    Скачать бесплатно Люди под лестницей
    Люди под лестницей скачать торрент
    Люди под лестницей смотреть онлайн
    Cкачать фильм Люди под лестницей бесплатно
    Люди под лестницей скачать торрент в хорошем качестве
    Люди под лестницей смотреть онлайн бесплатно в хорошем качестве


    Вы не можете начинать темы
    Вы не можете отвечать на сообщения
    Вы не можете редактировать свои сообщения
    Вы не можете удалять свои сообщения
    Вы не можете голосовать в опросах
    Вы не можете прикреплять файлы к сообщениям
    Вы можете скачивать файлы