Всегда рабочее зеркало просто перед .vidak.icu напиши любое слово или цифру, Пример http://16v.vidak.icu

>

7.4

iTunes

7.4

2 сезон

9.4

1 сезон

1

7.4

2 сезон

7.2

iTunes

6.0

MVO

13

6.1

iTunes

8.3

Пиратка

30

ULTIMATE

pack

9.9

Лицензия

ВАЖНО

ИГРА 18+

pack

7.3

RePack

MK11

7.7

RePack

jed

7.8

RePack

fifa19

8.5

RePack

RDR2

RePack

NEED FOR SPEED™ PAYBACK

1 сезон

9 сезон

Бесстыжие 9 сезон

Все сериалы

все сериалы на PB.wtf

RePack

FAR CRY 5

Anonymous, доброе утро, мы катастрофически не успеваем собрать деньги на оплату серверов, помогите нам пожалуйста 5,10,15р., для нас важна любая помощь . В качестве благодарности мы отключим Вам всю рекламу на сайте (укажите свой ник в строку Ваше имя)!

×
  
Magnet ссылка

Водолей / Deliria (Микеле Соави / Michele Soavi) [1987, Италия, ужасы, HDRip,Любительский одноголосый закадровый (А.Гаврилов) pb.wtf

Водолей через торрент pb.wtf

Размер: 1.45 GB | Добавлен: 7 лет 2 мес. назад | Торрент скачан:5 раз
Смотреть онлайн Водолей | Скачать    Ребята, помогите собрать деньги на оплату серверов!!!

09-11-2014 10:09 Водолей Скачать торрент  

Водолей / Deliria

Год выпуска: 1987
Страна: Италия
Жанр: ужасы

Продолжительность: 01:30:16
Перевод: Одноголосый закадровый (А.Гаврилов)
Субтитры: Нет
Режиссер: Микеле Соави / Michele Soavi
В ролях: Дэвид Брэндон (Peter), Барбара Куписти (Alicia), Доменико Фиоре (Police Chief), Роберт Глигоров (Danny), Микки Нокс (Old Cop), Джованни Ломбардо Радице (Brett), Клейн Паркер (Irving Wallace), Лоредана Паррелла (Corinne), Мартин Филипс (Mark), Джеймс Сэмпсон (Willy), Ulrike Schwerk (Betty), Мэри Селлерс (Laurel)
Описание:
В небольшом театре идут репетиции мюзикла, главным героем которого должен стать кровавый маньяк-убийца Ирвинг Уоллес.
По дьявольской иронии судьбы, сам прототип, только что сбежавший из закрытой психиатрической лечебницы, оказывается среди зрителей на генеральной репетиции. И начинается кровавая баня - ведь к концу спектакля все актеры могут превратиться в куски окровавленного мяса...
Рейтинг
kinopoisk.ru: 6.888 (236)
imdb.com: 6.80 (3258)
Качество: HDRip
Формат: AVI
Видео кодек: XviD
Аудио кодек:AC3
Видео: XviD, 720x384 (1.875), 1906 kbps, 23,976 fps, 0,288 bpp
Аудио: AC3 / 5.1 / 48 kHz / 384 kbps / 16 bit

General
Complete name : D:\torrent\Vodoley.1987.HDRip - 5.1ch.avi
Format : AVI
Format/Info : Audio Video Interleave
File size : 1.45 GiB
Duration : 1h 30mn
Overall bit rate : 2 300 Kbps
Movie name : Deliria.1987.HDRip
Writing application : VirtualDubModRus 1.5.10.2 (build 2542/release)
Copyright : rip by Rulya74

Video
ID : 0
Format : MPEG-4 Visual
Format profile : Advanced Simple@L5
Format settings, BVOP : 1
Format settings, QPel : No
Format settings, GMC : No warppoints
Format settings, Matrix : Custom
Codec ID : XVID
Codec ID/Hint : XviD
Duration : 1h 30mn
Bit rate : 1 906 Kbps
Width : 720 pixels
Height : 384 pixels
Display aspect ratio : 1.875
Frame rate : 23.976 fps
Color space : YUV
Chroma subsampling : 4:2:0
Bit depth : 8 bits
Scan type : Progressive
Compression mode : Lossy
Bits/(Pixel*Frame) : 0.288
Stream size : 1.20 GiB (83%)
Writing library : XviD 66

Audio
ID : 1
Format : AC-3
Format/Info : Audio Coding 3
Mode extension : CM (complete main)
Codec ID : 2000
Duration : 1h 30mn
Bit rate mode : Constant
Bit rate : 384 Kbps
Channel(s) : 6 channels
Channel positions : Front: L C R, Side: L R, LFE
Sampling rate : 48.0 KHz
Bit depth : 16 bits
Compression mode : Lossy
Stream size : 248 MiB (17%)
Alignment : Split accross interleaves
Interleave, duration : 42 ms (1.00 video frame)
Interleave, preload duration : 500 ms
Title : Одноголосый закадровый (А. Гаврилов)



pb.wtf



Скачать Водолей через торрент http://i1.imageban.ru/out/2014/11/09/a6500685619a989e1df56314db7d0b27.jpg Скачать, смотреть онлайн Водолей бесплантно в хорошем качестве Описание: В небольшом театре идут репетиции мюзикла, главным героем которого должен стать кровавый маньяк-убийца Ирвинг Уоллес.По ... 10 10 2
Торрент: Зарегистрирован [2014-11-09 10:09] · скачан: 5 раз
Статус: √ проверено
Размер: 1.45 GB
Как cкачать? Как скачать Водолей через торрент | UTorrent

% Раздел Тема Автор DL S | L
Фильмы (Blu-ray, BD-Remux, HDDVD) [ 26.05 GB ] Водолей / Deliria [1987 BDRemux] AVOx2 Ворон Скачать
1 | 0

28-11-2019 20:33  

Отключить всю рекламу на сайте

    Дорогой пользователь! Огромная просьба, поблагодарите релизера, оцените раздачу и оставьте свои комментарий, если Вы скачали Водолей через торрент бесплатно!
    Комментировать посты могут только пользователи прошедшие не сложную регистрацию
    Показать сообщения:    

    Водолей через торрент
    Скачать бесплатно Водолей
    Водолей скачать торрент
    Водолей смотреть онлайн
    Cкачать фильм Водолей бесплатно
    Водолей скачать торрент в хорошем качестве
    Водолей смотреть онлайн бесплатно в хорошем качестве


    Вы не можете начинать темы
    Вы не можете отвечать на сообщения
    Вы не можете редактировать свои сообщения
    Вы не можете удалять свои сообщения
    Вы не можете голосовать в опросах
    Вы не можете прикреплять файлы к сообщениям
    Вы можете скачивать файлы