Ссылка на приватное зеркало нашего сайта всего за 1$. Внимание количество ограничено!!!

2 сезон

iTunes

1 сезон

1

iTunes

iTunes

iTunes

1 сезон

RePack

30

ИГРА 18+

pack

ВАЖНО

!!Акция!!

Alien_RageХит недели

RePack

MK11
pack

Забери бонус

RePack

jed

!!Акция!!

Alien_Rage

RePack

fifa19

RePack

Assassins Creed: Odyssey

RePack

NEED FOR SPEED™ PAYBACK

4 сезон

9 сезон

Бесстыжие 9 сезон

Все сериалы

все сериалы на PB.wtf

RePack

FAR CRY 5
  

Шторм / De storm (Бен Сомбогаарт) [2009, драма, BDRip 1080p] MVO pb.wtf

Шторм через торрент pb.wtf

Размер: 9.98 GB | Добавлен: 5 лет 11 мес. назад | Торрент скачан:36 раз
Скачать  

10-11-2014 05:50 Шторм Скачать торрент  

Шторм / De storm

Год выпуска: 2009
Страна: Нидерланды, Бельгия
Жанр: драма
Продолжительность: 01:36:41
Перевод: профессиональный многоголосый
Субтитры: английские

Режиссёр: Бен Сомбогаарт

В ролях: Сильвия Хукс, Барри Атсма, Моник Хендрикс, Бас Кейзер, Эверт Де Ягер

Описание: В последний день января 1953 года прорыв сразу нескольких дамб и сильный шторм на море вызывают колоссальное наводнение в Голландии. Хлынувшее море затопляет сотни километров земли, разрушая фермерский дом молодой матери-одиночки Юлии, которая оказывается разлучённой со своим маленьким ребёнком. Саму её от гибели чудом спасает молодой лейтенант военно-воздушных сил, который соглашается помочь ей в безнадёжной попытке найти потерянного малыша посреди обрушившегося на страну хаоса и разрухи.



Качество: BDRip 1080p Сравнение с исходником
Формат: MKV
Видео кодек: H.264
Аудио кодек: AC3, DTS
Видео: 12.5 Mбит/с, 1920x816, 24 кадра/с, 0.333 bpp
Аудио 1: русский, AC3, 448 kbps, 6 ch, 48 kHz [профессиональный многоголосый]
Аудио 2: голландский, DTS, 1509 kbps, 6 ch, 48 kHz [оригинал]

Имеются неименованные главы/чаптеры.

Автор рипа msltel
frame I:900 Avg QP:17.13 size:168564
frame P:27119 Avg QP:18.23 size:112948
frame B:111085 Avg QP:20.41 size: 54702

Общее
Уникальный идентификатор : 185325901148576129421737289410444993587 (0x8B6C786241650ED085E7808D144F2433)
Полное имя : D:VideoShtorm.2009.BDRip.1080p.mkv
Формат : Matroska
Версия формата : Version 4 / Version 2
Размер файла : 9,98 Гбайт
Продолжительность : 1 ч. 36 м.
Общий поток : 14,8 Мбит/сек
Дата кодирования : UTC 2014-11-10 03:26:49
Программа кодирования : mkvmerge v7.3.0 ('Nouages') 64bit built on Oct 22 2014 18:53:34
Библиотека кодирования : libebml v1.3.0 + libmatroska v1.4.1
_STATISTICS_WRITING_APP : mkvmerge v7.3.0 ('Nouages') 64bit built on Oct 22 2014 18:53:34
_STATISTICS_WRITING_DATE_UTC : 2014-11-10 03:26:49
_STATISTICS_TAGS : BPS DURATION NUMBER_OF_FRAMES NUMBER_OF_BYTES
DURATION : 01:36:41.451000000
NUMBER_OF_FRAMES : 543886
NUMBER_OF_BYTES : 1094298700

Видео
Идентификатор : 1
Формат : AVC
Формат/Информация : Advanced Video Codec
Профиль формата : High@L4.1
Параметр CABAC формата : Да
Параметр ReFrames формата : 4 кадра
Идентификатор кодека : V_MPEG4/ISO/AVC
Продолжительность : 1 ч. 36 м.
Битрейт : 12,5 Мбит/сек
Ширина : 1920 пикселей
Высота : 816 пикселей
Соотношение сторон : 2,35:1
Режим частоты кадров : Постоянный
Частота кадров : 24,000 кадра/сек
Цветовое пространство : YUV
Субдискретизация насыщенности : 4:2:0
Битовая глубина : 8 бит
Тип развёртки : Прогрессивная
Бит/(Пиксели*Кадры) : 0.333
Размер потока : 8,46 Гбайт (85%)
Заголовок : BDRip -- STarankov
Библиотека кодирования : x264 core 142 r2431 ac76440
Настройки программы : cabac=1 / ref=4 / deblock=1:-1:-1 / analyse=0x3:0x113 / me=umh / subme=10 / psy=1 / psy_rd=1.00:0.15 / mixed_ref=1 / me_range=32 / chroma_me=1 / trellis=2 / 8x8dct=1 / cqm=0 / deadzone=21,11 / fast_pskip=1 / chroma_qp_offset=-3 / threads=6 / lookahead_threads=1 / sliced_threads=0 / nr=0 / decimate=1 / interlaced=0 / bluray_compat=0 / constrained_intra=0 / bframes=8 / b_pyramid=2 / b_adapt=2 / b_bias=0 / direct=3 / weightb=1 / open_gop=0 / weightp=2 / keyint=230 / keyint_min=23 / scenecut=40 / intra_refresh=0 / rc_lookahead=40 / rc=crf / mbtree=0 / crf=18.6 / qcomp=0.60 / qpmin=0 / qpmax=69 / qpstep=4 / vbv_maxrate=50000 / vbv_bufsize=62500 / crf_max=0.0 / nal_hrd=none / filler=0 / ip_ratio=1.40 / pb_ratio=1.30 / aq=1:1.00
Язык : Dutch
Default : Да
Forced : Нет
DURATION : 01:36:36.000000000
NUMBER_OF_FRAMES : 139104
NUMBER_OF_BYTES : 9291268656
_STATISTICS_WRITING_APP : mkvmerge v7.3.0 ('Nouages') 64bit built on Oct 22 2014 18:53:34
_STATISTICS_WRITING_DATE_UTC : 2014-11-10 03:26:49
_STATISTICS_TAGS : BPS DURATION NUMBER_OF_FRAMES NUMBER_OF_BYTES

Аудио #1
Идентификатор : 2
Формат : AC-3
Формат/Информация : Audio Coding 3
Расширение режима : CM (complete main)
Параметр Endianness формата : Big
Идентификатор кодека : A_AC3
Продолжительность : 1 ч. 36 м.
Вид битрейта : Постоянный
Битрейт : 448 Кбит/сек
Каналы : 6 каналов
Расположение каналов : Front: L C R, Side: L R, LFE
Частота : 48,0 КГц
Битовая глубина : 16 бит
Метод сжатия : С потерями
Размер потока : 310 Мбайт (3%)
Заголовок : MVO
Язык : Russian
Default : Да
Forced : Нет

Аудио #2
Идентификатор : 3
Формат : DTS
Формат/Информация : Digital Theater Systems
Режим : 16
Параметр Endianness формата : Big
Идентификатор кодека : A_DTS
Продолжительность : 1 ч. 36 м.
Вид битрейта : Постоянный
Битрейт : 1509 Кбит/сек
Каналы : 6 каналов
Расположение каналов : Front: L C R, Side: L R, LFE
Частота : 48,0 КГц
Битовая глубина : 24 бит
Метод сжатия : С потерями
Размер потока : 1,02 Гбайт (10%)
Заголовок : Original
Язык : Dutch
Default : Нет
Forced : Нет

Текст
Идентификатор : 4
Формат : UTF-8
Идентификатор кодека : S_TEXT/UTF8
Идентификатор кодека/Информация : UTF-8 Plain Text
Заголовок : английский
Язык : English
Default : Нет
Forced : Нет

Меню
00:00:00.000 : :Chapter 01
00:06:16.375 : :Chapter 02
00:11:23.791 : :Chapter 03
00:22:51.333 : :Chapter 04
00:34:26.333 : :Chapter 05
00:42:02.041 : :Chapter 06
00:48:56.458 : :Chapter 07
00:59:03.791 : :Chapter 08
01:05:10.791 : :Chapter 09
01:14:56.541 : :Chapter 10
01:24:44.375 : :Chapter 11
01:31:42.750 : :Chapter 12
pb.wtf



Скачать Шторм через торрент http://i68.fastpic.ru/big/2014/1109/31/5d0f61e85afb151521650557e25f0c31.jpg Скачать фильм Шторм через торрент бесплантно в хорошем качестве Описание: В последний день января 1953 года прорыв сразу нескольких дамб и сильный шторм на море вызывают колоссальное наводнение в ... 10 10 2
Info! Золотая раздача, скачанное не засчитывается.
Торрент: Зарегистрирован [2014-11-10 05:50] · скачан: 36 раз
Статус: √ проверено
Размер: 9.98 GB
Как cкачать? Как скачать Шторм через торрент | qTorrent

% Раздел Тема Автор DL S | L
3D Фильмы [ 15.35 GB ] Геошторм в 3Д / Geostorm 3D [2017 BDRip 1080p] MVO [Paradox&Omskbird Records] +DUB [Anamorph SideBySide / Горизонтальная анаморфная стереопара] [] bober100 Скачать
1 | 0
Фильмы [HD 720p, 1080p] (Хороший звук DUB, MVO) [ 4.42 GB ] Шторм / De storm [2009 BDRip 720p] MVO msltel Скачать
1 | 0

28-11-2019 20:33  

Отключить всю рекламу на сайте

    Дорогой пользователь! Огромная просьба, поблагодарите релизера, оцените раздачу и оставьте свои комментарий, если Вы скачали Шторм через торрент бесплатно! Внесите свою лепту в развитие PiratBit!
    Комментировать посты могут только пользователи прошедшие не сложную регистрацию
    Показать сообщения:    

    Шторм через торрент
    Скачать бесплатно Шторм
    Шторм скачать торрент
    Шторм смотреть онлайн
    Cкачать фильм Шторм бесплатно
    Шторм скачать торрент в хорошем качестве
    Шторм смотреть онлайн бесплатно в хорошем качестве


    Вы не можете начинать темы
    Вы не можете отвечать на сообщения
    Вы не можете редактировать свои сообщения
    Вы не можете удалять свои сообщения
    Вы не можете голосовать в опросах
    Вы не можете прикреплять файлы к сообщениям
    Вы можете скачивать файлы