Ссылка на приватное зеркало нашего сайта всего за 1$. Внимание количество ограничено!!!

2 сезон

iTunes

1 сезон

1

2 сезон

2 сезон

iTunes

1 сезон

RePack

30

Ultimate

ВАЖНО

ИГРА 18+

pack

RePack

MK11
pack

Забери бонус

RePack

jed

!!Акция!!

Alien_Rage

RePack

fifa19

RePack

Assassins Creed: Odyssey

RePack

NEED FOR SPEED™ PAYBACK

4 сезон

9 сезон

Бесстыжие 9 сезон

Все сериалы

все сериалы на PB.wtf

RePack

FAR CRY 5
  

Мастурбация, сидя на унитазе pb.wtf

Мастурбация, сидя на унитазе через торрент pb.wtf

Размер: 18 MB | Добавлен: 6 лет назад | Торрент скачан:591 раз
Скачать  

10-11-2014 07:48 Мастурбация, сидя на унитазе Скачать торрент  

Format : Flash Video
File size : 18.1 MiB
Duration : 4mn 21s
Overall bit rate : 581 Kbps
Tagged date : UTC 2014-11-07 18:46:30
Tagging application : flvtool++ (Facebook, Motion project, dweatherford)

Video
Format : AVC
Format/Info : Advanced Video Codec
Format profile : Baseline@L3.1
Format settings, CABAC : No
Format settings, ReFrames : 2 frames
Codec ID : 7
Duration : 4mn 21s
Bit rate : 512 Kbps
Width : 320 pixels
Height : 240 pixels
Display aspect ratio : 4:3
Frame rate mode : Constant
Frame rate : 25.000 fps
Color space : YUV
Chroma subsampling : 4:2:0
Bit depth : 8 bits
Scan type : Progressive
Bits/(Pixel*Frame) : 0.267
Stream size : 16.0 MiB (88%)
Writing library : x264 core 125
Encoding settings : cabac=0 / ref=2 / deblock=1:0:0 / analyse=0x1:0x111 / me=hex / subme=6 / psy=1 / psy_rd=1.00:0.00 / mixed_ref=0 / me_range=16 / chroma_me=1 / trellis=0 / 8x8dct=0 / cqm=0 / deadzone=21,11 / fast_pskip=1 / chroma_qp_offset=-2 / threads=1 / lookahead_threads=1 / sliced_threads=0 / nr=0 / decimate=1 / interlaced=0 / bluray_compat=0 / constrained_intra=0 / bframes=0 / weightp=0 / keyint=250 / keyint_min=25 / scenecut=40 / intra_refresh=0 / rc_lookahead=40 / rc=2pass / mbtree=1 / bitrate=512 / ratetol=1.0 / qcomp=0.50 / qpmin=10 / qpmax=51 / qpstep=4 / cplxblur=20.0 / qblur=0.5 / ip_ratio=1.41 / aq=1:1.00

Audio
Format : AAC
Format/Info : Advanced Audio Codec
Format profile : LC
Codec ID : 10
Duration : 4mn 21s
Bit rate : 59.7 Kbps
Channel count : 2 channels
Channel positions : Front: L R
Sampling rate : 44.1 KHz
Compression mode : Lossy
Stream size : 1.86 MiB (10%)
pb.wtf



pack Скачать Мастурбация, сидя на унитазе через торрент http://pic.kartinco.top/images/8/stmjp_tn.jpg Скачать фильм Мастурбация, сидя на унитазечерез торрент бесплантно в хорошем качестве ... 9.2 10 13
Торрент: Зарегистрирован [2014-11-10 07:48] · скачан: 591 раз
Статус: √ проверено
Размер: 18 MB
Как cкачать? Как скачать Мастурбация, сидя на унитазе через торрент | qTorrent

28-11-2019 20:33  

Отключить всю рекламу на сайте

    Дорогой пользователь! Огромная просьба, поблагодарите релизера, оцените раздачу и оставьте свои комментарий, если Вы скачали Мастурбация, сидя на унитазе через торрент бесплатно! Внесите свою лепту в развитие PiratBit!
    Комментировать посты могут только пользователи прошедшие не сложную регистрацию
    Показать сообщения:    

    Мастурбация, сидя на унитазе через торрент
    Скачать бесплатно Мастурбация, сидя на унитазе
    Мастурбация, сидя на унитазе скачать торрент
    Мастурбация, сидя на унитазе смотреть онлайн
    Cкачать фильм Мастурбация, сидя на унитазе бесплатно
    Мастурбация, сидя на унитазе скачать торрент в хорошем качестве
    Мастурбация, сидя на унитазе смотреть онлайн бесплатно в хорошем качестве


    Вы не можете начинать темы
    Вы не можете отвечать на сообщения
    Вы не можете редактировать свои сообщения
    Вы не можете удалять свои сообщения
    Вы не можете голосовать в опросах
    Вы не можете прикреплять файлы к сообщениям
    Вы можете скачивать файлы