Ссылка на приватное зеркало нашего сайта всего за 1$. Внимание количество ограничено!!!

2 сезон

iTunes

1 сезон

1

2 сезон

2 сезон

iTunes

1 сезон

RePack

30

Ultimate

ВАЖНО

ИГРА 18+

pack

RePack

MK11
pack

Забери бонус

RePack

jed

!!Акция!!

Alien_Rage

RePack

fifa19

RePack

Assassins Creed: Odyssey

RePack

NEED FOR SPEED™ PAYBACK

4 сезон

9 сезон

Бесстыжие 9 сезон

Все сериалы

все сериалы на PB.wtf

RePack

FAR CRY 5
  

Девочка мастурбирует в школьном туалете pb.wtf

Девочка мастурбирует в школьном туалете через торрент pb.wtf

Качают: 1 [ 0 KB/s ]
Размер: 25 MB | Добавлен: 6 лет назад | Торрент скачан:1355 раз
Скачать  

10-11-2014 07:56 Девочка мастурбирует в школьном туалете Скачать торрент  

Format : Flash Video
File size : 24.6 MiB
Duration : 6mn 5s
Overall bit rate : 565 Kbps
Tagged date : UTC 2014-06-28 11:14:42
Tagging application : flvtool++ (Facebook, Motion project, dweatherford)

Video
Format : AVC
Format/Info : Advanced Video Codec
Format profile : High@L2.0
Format settings, CABAC : Yes
Format settings, ReFrames : 4 frames
Codec ID : 7
Duration : 6mn 5s
Bit rate : 512 Kbps
Width : 320 pixels
Height : 240 pixels
Display aspect ratio : 4:3
Frame rate mode : Constant
Frame rate : 15.011 fps
Color space : YUV
Chroma subsampling : 4:2:0
Bit depth : 8 bits
Scan type : Progressive
Bits/(Pixel*Frame) : 0.444
Stream size : 22.3 MiB (91%)
Writing library : x264 core 119
Encoding settings : cabac=1 / ref=2 / deblock=1:0:0 / analyse=0x3:0x113 / me=hex / subme=6 / psy=1 / psy_rd=1.00:0.00 / mixed_ref=0 / me_range=16 / chroma_me=1 / trellis=0 / 8x8dct=1 / cqm=0 / deadzone=21,11 / fast_pskip=1 / chroma_qp_offset=-2 / threads=1 / sliced_threads=0 / nr=0 / decimate=1 / interlaced=0 / bluray_compat=0 / constrained_intra=0 / bframes=16 / b_pyramid=2 / b_adapt=0 / b_bias=0 / direct=2 / weightb=1 / open_gop=0 / weightp=2 / keyint=250 / keyint_min=25 / scenecut=40 / intra_refresh=0 / rc_lookahead=40 / rc=2pass / mbtree=1 / bitrate=512 / ratetol=1.0 / qcomp=0.50 / qpmin=10 / qpmax=51 / qpstep=4 / cplxblur=20.0 / qblur=0.5 / ip_ratio=1.41 / aq=1:1.00

Audio
Format : AAC
Format/Info : Advanced Audio Codec
Format profile : LC
Codec ID : 10
Duration : 6mn 5s
Bit rate : 45.1 Kbps
Channel count : 2 channels
Channel positions : Front: L R
Sampling rate : 48.0 KHz
Compression mode : Lossy
Stream size : 1.96 MiB (8%)
pb.wtf



pack Скачать Девочка мастурбирует в школьном туалете через торрент http://pic.kartinco.top/images/8/ihf73_tn.jpg Скачать фильм Девочка мастурбирует в школьном туалетечерез торрент бесплантно в хорошем качестве ... 9.5 10 25
Торрент: Зарегистрирован [2014-11-10 07:57] · скачан: 1 355 раз
Статус: √ проверено
Размер: 25 MB
Как cкачать? Как скачать Девочка мастурбирует в школьном туалете через торрент | qTorrent

28-11-2019 20:33  

Отключить всю рекламу на сайте

    Дорогой пользователь! Огромная просьба, поблагодарите релизера, оцените раздачу и оставьте свои комментарий, если Вы скачали Девочка мастурбирует в школьном туалете через торрент бесплатно! Внесите свою лепту в развитие PiratBit!
    Комментировать посты могут только пользователи прошедшие не сложную регистрацию
    Показать сообщения:    

    Девочка мастурбирует в школьном туалете через торрент
    Скачать бесплатно Девочка мастурбирует в школьном туалете
    Девочка мастурбирует в школьном туалете скачать торрент
    Девочка мастурбирует в школьном туалете смотреть онлайн
    Cкачать фильм Девочка мастурбирует в школьном туалете бесплатно
    Девочка мастурбирует в школьном туалете скачать торрент в хорошем качестве
    Девочка мастурбирует в школьном туалете смотреть онлайн бесплатно в хорошем качестве


    Вы не можете начинать темы
    Вы не можете отвечать на сообщения
    Вы не можете редактировать свои сообщения
    Вы не можете удалять свои сообщения
    Вы не можете голосовать в опросах
    Вы не можете прикреплять файлы к сообщениям
    Вы можете скачивать файлы