>

7.4

iTunes

7.4

2 сезон

9.4

1 сезон

1

7.4

2 сезон

7.2

iTunes

6.0

MVO

13

6.1

iTunes

8.3

Пиратка

30

ULTIMATE

pack

9.9

Лицензия

ВАЖНО

ИГРА 18+

pack

7.3

RePack

MK11

7.7

RePack

jed

7.8

RePack

fifa19

8.5

RePack

RDR2

RePack

NEED FOR SPEED™ PAYBACK

1 сезон

9 сезон

Бесстыжие 9 сезон

Все сериалы

все сериалы на PB.wtf

RePack

FAR CRY 5

Anonymous, доброе утро, мы катастрофически не успеваем собрать деньги на оплату серверов, помогите нам пожалуйста 5,10,15р., для нас важна любая помощь . В качестве благодарности мы отключим Вам всю рекламу на сайте (укажите свой ник в строку Ваше имя)!

×
  
Magnet ссылка

Случайный шпион / The Accidental Spy / Dak miu mai shing (Тедди Чан / Teddy Chan) [2001, боевик, триллер, комедия, HDRip] [Расширенная версия] [AVO] (А.Гаврилов) pb.wtf

Случайный шпион через торрент pb.wtf

Размер: 1.46 GB | Добавлен: 7 лет 2 мес. назад | Торрент скачан:53 раза
Смотреть онлайн Случайный шпион | Скачать    Ребята, помогите собрать деньги на оплату серверов!!!

10-11-2014 09:39 Случайный шпион Скачать торрент  

Случайный шпион / The Accidental Spy / Dak miu mai shing
Год выпуска: 2001
Страна: Гонконг
Жанр: боевик, триллер, комедия
Продолжительность: 01:47:37
Перевод: Авторский (одноголосый, закадровый) [Андрей Гаврилов]
Cубтитры: нет

Режиссер: Тедди Чан / Teddy Chan

В ролях: Джеки Чан, Эрик Цан, Вивиан Су, Мин Ким, Син-Куо У, Альфред Чун, Энтони Рене Джонс, Глори Саймон, Брэдли Джеймс Аллан, Тат-Минг Чунг

Описание: Сирота Бак всегда мечтал стать спецагентом. С детства изучал боевые искусства. Однажды помог полиции в задержании грабителей банка. Бак постоянно сталкивается с подозрительными фактами о прошлой жизни своего отца, который по словам частного детектива Лиу является миллионером. Детектив убедил Бака отправиться на встречу с «отцом» в Турцию, а затем Корею. Бак и не догадывается, что его отец фактически оказывается северо-корейским шпионом.
Таким образом сирота становится адресатом для посещений его рядом таинственных людей. Он даже не предполагал, что окажется запутанным в деле с воровством вируса, вызывающего рак легких, из американского правительственного научного департамента. И теперь ему придется использовать все свое умение и храбрость, чтобы остановить вирус от попадания не в те руки…



Качество видео: НDRip
Формат видео: AVI
Видео кодек: XviD
Аудио кодек: AC3
Видео: 720x304 (2.37:1), 24.000 fps, XviD build 73 ~1549 kbps avg, 0.29 bit/pixel
Аудио: 48 kHz, AC3 Dolby Digital, 3/2 (L,C,R,l,r) + LFE ch, ~384 kbps
за дорогу Гаврилова спасибо tatyanochka2011, а также Cocotte32, который любезно её предоставил
Полное имя : Невозмутимый 1991.avi
Формат : AVI
Формат/Информация : Audio Video Interleave
Размер файла : 1,46 Гбайт
Продолжительность : 1 ч. 32 м.
Общий поток : 2265 Кбит/сек
Программа кодирования : VirtualDubMod 1.5.10.2 (build 2540/release)
Библиотека кодирования : VirtualDubMod build 2540/release
Видео
Идентификатор : 0
Формат : MPEG-4 Visual
Профиль формата : Advanced Simple@L5
Параметр BVOP формата : 1
Параметр QPel формата : Нет
Параметр GMC формата : Без точки перехода
Параметр матрицы формата : Выборочная
Идентификатор кодека : XVID
Идентификатор кодека/Подсказка : XviD
Продолжительность : 1 ч. 32 м.
Битрейт : 1872 Кбит/сек
Ширина : 704 пикселя
Высота : 384 пикселя
Соотношение сторон : 1,85:1
Частота кадров : 23,976 кадра/сек
Цветовое пространство : YUV
Субдискретизация насыщенности : 4:2:0
Битовая глубина : 8 бит
Тип развёртки : Прогрессивная
Метод сжатия : С потерями
Бит/(Пиксели*Кадры) : 0.289
Размер потока : 1,20 Гбайт (83%)
Библиотека кодирования : XviD 73
Аудио
Идентификатор : 1
Формат : AC-3
Формат/Информация : Audio Coding 3
Расширение режима : CM (complete main)
Параметр Endianness формата : Big
Идентификатор кодека : 2000
Продолжительность : 1 ч. 32 м.
Вид битрейта : Постоянный
Битрейт : 384 Кбит/сек
Каналы : 6 каналов
Расположение каналов : Front: L C R, Side: L R, LFE
Частота : 48,0 КГц
Битовая глубина : 16 бит
Метод сжатия : С потерями
Размер потока : 253 Мбайт (17%)
Выравнивание : Разделение по промежуткам
Продолжительность промежутка : 42 мс. (1,00 видеокадр)
Время предзагрузки промежутка : 500 мс.
pb.wtf



Скачать Случайный шпион через торрент http://i67.fastpic.ru/big/2014/1027/61/70ca24d85eb881af74bebdd50b22e261.jpg Скачать, смотреть онлайн Случайный шпион бесплантно в хорошем качестве Описание: Сирота Бак всегда мечтал стать спецагентом. С детства изучал боевые искусства. Однажды помог полиции в задержании грабителей ... 10 10 2
Торрент: Зарегистрирован [2014-11-10 09:39] · скачан: 53 раз
Статус: √ проверено
Размер: 1.46 GB
Как cкачать? Как скачать Случайный шпион через торрент | UTorrent

28-11-2019 20:33  

Отключить всю рекламу на сайте

    Дорогой пользователь! Огромная просьба, поблагодарите релизера, оцените раздачу и оставьте свои комментарий, если Вы скачали Случайный шпион через торрент бесплатно!
    Комментировать посты могут только пользователи прошедшие не сложную регистрацию
    Показать сообщения:    

    Случайный шпион через торрент
    Скачать бесплатно Случайный шпион
    Случайный шпион скачать торрент
    Случайный шпион смотреть онлайн
    Cкачать фильм Случайный шпион бесплатно
    Случайный шпион скачать торрент в хорошем качестве
    Случайный шпион смотреть онлайн бесплатно в хорошем качестве


    Вы не можете начинать темы
    Вы не можете отвечать на сообщения
    Вы не можете редактировать свои сообщения
    Вы не можете удалять свои сообщения
    Вы не можете голосовать в опросах
    Вы не можете прикреплять файлы к сообщениям
    Вы можете скачивать файлы