2 сезон

iTunes

1 сезон

1

iTunes

iTunes

iTunes

1 сезон

RePack

30

ИГРА 18+

pack

ВАЖНО

!!Акция!!

Alien_RageХит недели

RePack

MK11
pack

Забери бонус

RePack

jed

!!Акция!!

Alien_Rage

RePack

fifa19

RePack

Assassins Creed: Odyssey

RePack

NEED FOR SPEED™ PAYBACK

4 сезон

9 сезон

Бесстыжие 9 сезон

Все сериалы

все сериалы на PB.wtf

RePack

FAR CRY 5
  

Воздушный маршал / Non-Stop (Хауме Кольет-Серра ) [2014, детектив, триллер, боевик, BDRip 720p, Дублированный, 2хAVO] pb.wtf

Воздушный маршал через торрент pb.wtf

Размер: 6.56 GB | Добавлен: 5 лет 11 мес. назад | Торрент скачан:219 раз
Скачать  

10-11-2014 10:25 Воздушный маршал Скачать торрент  

Воздушный маршал / Non-Stop
«Захват самолёта - это только начало»


Год выпуска: 2014
Страна: Великобритания, Франция, США, Канада
Жанр: детектив, триллер, боевик
Продолжительность: 01:46:37
Перевод: Дублированный, Авторский (одноголосый)
Субтитры: русские (Full), русские (Forced)

Режиссер: Хауме Кольет-Серра
В ролях: Лиам Нисон , Джулианна Мур , Скут МакНэйри , Мишель Докери , Нэйт Паркер , Кори Столл , Лупита Нионго , Омар Метуолли , Джейсон Батлер Харнер , Лайнас Роуч , Ши Уигхэм , Энсон Маунт
Описание::
Межконтинентальный авиарейс. Билл Маркс, воздушный маршал, который обеспечивает безопасность пассажиров, получает сообщения с угрозами от маньяка-террориста. Преступник просчитал все ходы и подставил под обвинение самого спецагента. Теперь Маркс - цель спецслужб США. Ему остается одно: вычислить и обезвредить преступника, спасти пассажиров и свою любовь, которую он обретает на краю гибели. До взрыва остаются считанные минуты...

Качество: BDRip 720p (исходник Blu-ray)
Контейнер (Расширение): MKV
Видео кодек: AVC
Аудио кодек: AC3
Видео: 1280x534 (2.40:1), 6078 Кбит/сек, 23,976 кадр/сек, 0,371 Бит/[Пиксели*Кадры]
Аудио №1: русский / AC3 / 5.1 / 48 kHz / 640 kbps / 16 bit |Дублированный|
Аудио №2: русский / AC3 / 5.1 / 48 kHz / 640 kbps / 16 bit |авторский одноголосый, Гаврилов|
Аудио №3: русский / AC3 / 5.1 / 48 kHz / 640 kbps / 16 bit |авторский одноголосый, Есарев|
Аудио №4: английский / AC3 / 5.1 / 48 kHz / 640 kbps / 16 bit
Навигация по главам(Чаптеры): естьАвтор рипа: Сообщество:

Код:

Format                                   : Matroska
Format version                           : Version 2
File size                                : 6.56 GiB
Duration                                 : 1h 46mn
Overall bit rate                         : 8 814 Kbps
Movie name                               : Vozdushnyj marshal.(2014).BDRip.720p.[denis100]
Encoded date                             : UTC 2014-11-10 10:01:09
Writing application                      : mkvmerge v5.8.0 ('No Sleep / Pillow') built on Sep  2 2012 15:37:04
Writing library                          : libebml v1.2.3 + libmatroska v1.3.0

Video
ID                                       : 1
Format                                   : AVC
Format/Info                              : Advanced Video Codec
Format profile                           : High@L4.1
Format settings, CABAC                   : Yes
Format settings, ReFrames                : 11 frames
Codec ID                                 : V_MPEG4/ISO/AVC
Duration                                 : 1h 46mn
Bit rate                                 : 6 079 Kbps
Width                                    : 1 280 pixels
Height                                   : 534 pixels
Display aspect ratio                     : 2.40:1
Frame rate                               : 23.976 fps
Color space                              : YUV
Chroma subsampling                       : 4:2:0
Bit depth                                : 8 bits
Scan type                                : Progressive
Bits/(Pixel*Frame)                       : 0.371
Stream size                              : 4.53 GiB (69%)
Title                                    : Vozdushnyj marshal.(2014).BDRip.720p.[denis100]
Writing library                          : x264 core 142 r2479 dd79a61
Encoding settings                        : cabac=1 / ref=11 / deblock=1:-3:-3 / analyse=0x3:0x133 / me=umh / subme=11 / psy=1 / psy_rd=1.00:0.10 / mixed_ref=1 / me_range=32 / chroma_me=1 / trellis=2 / 8x8dct=1 / cqm=0 / deadzone=21,11 / fast_pskip=0 / chroma_qp_offset=-3 / threads=6 / lookahead_threads=1 / sliced_threads=0 / nr=0 / decimate=1 / interlaced=0 / bluray_compat=0 / constrained_intra=0 / bframes=8 / b_pyramid=2 / b_adapt=2 / b_bias=0 / direct=3 / weightb=1 / open_gop=0 / weightp=2 / keyint=240 / keyint_min=23 / scenecut=40 / intra_refresh=0 / rc=crf / mbtree=0 / crf=18.0 / qcomp=0.60 / qpmin=0 / qpmax=69 / qpstep=4 / ip_ratio=1.40 / pb_ratio=1.30 / aq=2:0.90
Language                                 : English
Default                                  : Yes
Forced                                   : No

Audio #1
ID                                       : 2
Format                                   : AC-3
Format/Info                              : Audio Coding 3
Mode extension                           : CM (complete main)
Codec ID                                 : A_AC3
Duration                                 : 1h 46mn
Bit rate mode                            : Constant
Bit rate                                 : 640 Kbps
Channel(s)                               : 6 channels
Channel positions                        : Front: L C R, Side: L R, LFE
Sampling rate                            : 48.0 KHz
Bit depth                                : 16 bits
Compression mode                         : Lossy
Stream size                              : 488 MiB (7%)
Title                                    : дублированный
Language                                 : Russian
Default                                  : Yes
Forced                                   : No

Audio #2
ID                                       : 3
Format                                   : AC-3
Format/Info                              : Audio Coding 3
Mode extension                           : CM (complete main)
Codec ID                                 : A_AC3
Duration                                 : 1h 46mn
Bit rate mode                            : Constant
Bit rate                                 : 640 Kbps
Channel(s)                               : 6 channels
Channel positions                        : Front: L C R, Side: L R, LFE
Sampling rate                            : 48.0 KHz
Bit depth                                : 16 bits
Compression mode                         : Lossy
Stream size                              : 488 MiB (7%)
Title                                    : авторский одноголосый, Гаврилов
Language                                 : Russian
Default                                  : No
Forced                                   : No

Audio #3
ID                                       : 4
Format                                   : AC-3
Format/Info                              : Audio Coding 3
Mode extension                           : CM (complete main)
Codec ID                                 : A_AC3
Duration                                 : 1h 46mn
Bit rate mode                            : Constant
Bit rate                                 : 640 Kbps
Channel(s)                               : 6 channels
Channel positions                        : Front: L C R, Side: L R, LFE
Sampling rate                            : 48.0 KHz
Bit depth                                : 16 bits
Compression mode                         : Lossy
Stream size                              : 488 MiB (7%)
Title                                    : авторский одноголосый, Есарев
Language                                 : Russian
Default                                  : No
Forced                                   : No

Audio #4
ID                                       : 5
Format                                   : AC-3
Format/Info                              : Audio Coding 3
Mode extension                           : CM (complete main)
Codec ID                                 : A_AC3
Duration                                 : 1h 46mn
Bit rate mode                            : Constant
Bit rate                                 : 640 Kbps
Channel(s)                               : 6 channels
Channel positions                        : Front: L C R, Side: L R, LFE
Sampling rate                            : 48.0 KHz
Bit depth                                : 16 bits
Compression mode                         : Lossy
Stream size                              : 488 MiB (7%)
Title                                    : English
Language                                 : English
Default                                  : No
Forced                                   : No

Text #1
ID                                       : 6
Format                                   : UTF-8
Codec ID                                 : S_TEXT/UTF8
Codec ID/Info                            : UTF-8 Plain Text
Title                                    : Full
Language                                 : Russian
Default                                  : No
Forced                                   : No

Text #2
ID                                       : 7
Format                                   : UTF-8
Codec ID                                 : S_TEXT/UTF8
Codec ID/Info                            : UTF-8 Plain Text
Title                                    : Forced
Language                                 : Russian
Default                                  : Yes
Forced                                   : No

Menu
00:00:00.000                             : en:00:00:00.000
00:04:24.639                             : en:00:04:24.639
00:10:29.043                             : en:00:10:29.043
00:14:47.052                             : en:00:14:47.052
00:18:51.836                             : en:00:18:51.836
00:24:22.125                             : en:00:24:22.125
00:29:44.574                             : en:00:29:44.574
00:35:48.603                             : en:00:35:48.603
00:39:28.489                             : en:00:39:28.489
00:45:41.572                             : en:00:45:41.572
00:49:03.940                             : en:00:49:03.940
00:55:17.731                             : en:00:55:17.731
01:01:59.257                             : en:01:01:59.257
01:08:42.326                             : en:01:08:42.326
01:12:16.997                             : en:01:12:16.997
01:18:14.979                             : en:01:18:14.979
01:26:02.029                             : en:01:26:02.029
01:30:46.189                             : en:01:30:46.189
01:36:14.725                             : en:01:36:14.725
01:40:13.796                             : en:01:40:13.796

x264 [info]: frame I:1721 Avg QP:16.19 size:130280
x264 [info]: frame P:31809 Avg QP:17.50 size: 54328
x264 [info]: frame B:119854 Avg QP:19.80 size: 25418
pb.wtf



Скачать Воздушный маршал через торрент http://i65.fastpic.ru/big/2014/1110/74/c4812af4df19826b4427b8adcfef0274.png Скачать фильм Воздушный маршал через торрент бесплантно в хорошем качестве Описание::Межконтинентальный авиарейс. Билл Маркс, воздушный маршал, который обеспечивает безопасность пассажиров, получает сообщения с ... 10 10 6
Торрент: Зарегистрирован [2014-11-10 10:25] · скачан: 219 раз
Статус: √ проверено
Размер: 6.56 GB
Как cкачать? Как скачать Воздушный маршал через торрент | qTorrent

% Раздел Тема Автор DL S | L
Фильмы 2014 [DVDrip, WEB-DLRip, HDrip] [ 2.91 GB ] Воздушный маршал / Non-Stop [2014 HDRip-AVC][] vovan Скачать
1 | 0
Фильмы 2014 [DVDrip, WEB-DLRip, HDrip] [ 1.37 GB ] Воздушный маршал / Non-Stop [2014 HDRip [- ] Ворон Скачать
1 | 0
Фильмы с авторской озвучкой [ 1.47 GB ] Воздушный маршал / Non-Stop [2014 HDRip] [Open Matte] [AVO] killermax2013 Скачать
1 | 0
Фильмы 2014 [DVDrip, WEB-DLRip, HDrip] [ 2.17 GB ] Воздушный маршал / Non-Stop [2014 BDRip ] coc900 Скачать
1 | 0
Фильмы [HD 720p, 1080p] (Хороший звук DUB, MVO) [ 14.1 GB ] Воздушный маршал / Non-Stop [2014 BDRip 1080p ] от R.G. HD-Films Seedtank Скачать
1 | 0
Фильмы (Blu-ray, BD-Remux, HDDVD) [ 24.54 GB ] Воздушный маршал / Non-Stop [2014 BD-Remux ] Seedtank Скачать
1 | 0
Фильмы 2014 [DVDrip, WEB-DLRip, HDrip] [ 2.2 GB ] Воздушный маршал / Non-Stop [2014 BDRip-AVC] DUB potroks Скачать
1 | 0

28-11-2019 20:33  

Отключить всю рекламу на сайте

    Дорогой пользователь! Огромная просьба, поблагодарите релизера, оцените раздачу и оставьте свои комментарий, если Вы скачали Воздушный маршал через торрент бесплатно! Внесите свою лепту в развитие PiratBit!
    Комментировать посты могут только пользователи прошедшие не сложную регистрацию
    Показать сообщения:    

    Воздушный маршал через торрент
    Скачать бесплатно Воздушный маршал
    Воздушный маршал скачать торрент
    Воздушный маршал смотреть онлайн
    Cкачать фильм Воздушный маршал бесплатно
    Воздушный маршал скачать торрент в хорошем качестве
    Воздушный маршал смотреть онлайн бесплатно в хорошем качестве


    Вы не можете начинать темы
    Вы не можете отвечать на сообщения
    Вы не можете редактировать свои сообщения
    Вы не можете удалять свои сообщения
    Вы не можете голосовать в опросах
    Вы не можете прикреплять файлы к сообщениям
    Вы можете скачивать файлы