Ссылка на приватное зеркало нашего сайта всего за 1$. Внимание количество ограничено!!!

2 сезон

iTunes

1 сезон

1

2 сезон

2 сезон

iTunes

1 сезон

RePack

30

Новинка

ВАЖНО

ИГРА 18+

pack

RePack

MK11
pack

Забери бонус

RePack

jed

!!Акция!!

Alien_Rage

RePack

fifa19

RePack

Assassins Creed: Odyssey

RePack

NEED FOR SPEED™ PAYBACK

4 сезон

9 сезон

Бесстыжие 9 сезон

Все сериалы

все сериалы на PB.wtf

RePack

FAR CRY 5
  

На виду / In Plain Sight / Полный 3 сезон (13) (Марк Пизнарски) [2010 г., полицейская драма, комедия, WEB-DLRip] MVO[Fox Crime] pb.wtf

На виду через торрент pb.wtf

Размер: 5.72 GB | Добавлен: 6 лет назад | Торрент скачан:10 раз
Скачать  

10-11-2014 11:14 На виду Скачать торрент  

На виду / In Plain Sight
Год выпуска: 2010
Страна: США
Жанр: полицейская драма, комедия
Продолжительность: ~ 00:42:00
Перевод: Профессиональный (многоголосый, закадровый) /Fox Crime/

Режиссер: Марк Пизнарски



В ролях: Мэри МакКормак, Фред Уэллер, Николь Хильтц, Пол Бен-Виктор, Кристиан де ла Фуэнте, Лесли Энн Уоррен, Тодд Уильямс, Холли Мэйплс, Джошуа Малина, Артур Вулдридж

Описание: Сериал повествует о жизни федерального пристава программы по защите свидетелей, которая вынуждена скрывать свою рискованную, оказывающую большое влияние работу от своей семьи. Для большинства, Мэри Шэнон всего лишь высоко-оплачиваемый постовой, в то время как её настоящая работа намного опаснее. Она присматривает за свидетелями федерального правосудия, которые перемещаются в новое местоположение в рамках программы по защите свидетелей. Её основная задача обеспечение их безопасности.

Качество: WEB-DLRip
Формат: AVI
Видео кодек: XviD
Аудио кодек: MP3
Видео: 720x400 (16/9), 23.976 fps, 1 187 Kbps
Аудио#1: RUS: 48 kHz, MPEG Layer 3, 2 ch, ~128 kbps
Аудио#2: ENG: 48 kHz, MPEG Layer 3, 2 ch, ~128 kbps

General
Complete name : E:\In.Plain.Sight.s03e01.WEB-DLRip.Rus.Eng.Gravi-TV.avi
Format : AVI
Format/Info : Audio Video Interleave
File size : 450 MiB
Duration : 43mn 12s
Overall bit rate : 1 457 Kbps
Writing application : VirtualDubMod 1.6.0.0 SURROUND (build 2560/release)
Writing library : VirtualDubMod build 2560/release

Video
ID : 0
Format : MPEG-4 Visual
Format profile : Advanced Simple@L5
Format settings, BVOP : 2
Format settings, QPel : No
Format settings, GMC : No warppoints
Format settings, Matrix : Default (H.263)
Muxing mode : Packed bitstream
Codec ID : XVID
Codec ID/Hint : XviD
Duration : 43mn 12s
Bit rate : 1 187 Kbps
Width : 720 pixels
Height : 400 pixels
Display aspect ratio : 16:9
Frame rate : 23.976 fps
Color space : YUV
Chroma subsampling : 4:2:0
Bit depth : 8 bits
Scan type : Progressive
Compression mode : Lossy
Bits/(Pixel*Frame) : 0.172
Stream size : 367 MiB (81%)
Writing library : XviD 1.2.1 (UTC 2008-12-04)

Audio #1
ID : 1
Format : MPEG Audio
Format version : Version 1
Format profile : Layer 3
Codec ID : 55
Codec ID/Hint : MP3
Duration : 43mn 12s
Bit rate mode : Constant
Bit rate : 128 Kbps
Channel(s) : 2 channels
Sampling rate : 48.0 KHz
Compression mode : Lossy
Stream size : 39.6 MiB (9%)
Alignment : Aligned on interleaves
Interleave, duration : 42 ms (1.00 video frame)
Interleave, preload duration : 504 ms

Audio #2
ID : 2
Format : MPEG Audio
Format version : Version 1
Format profile : Layer 3
Mode : Joint stereo
Mode extension : MS Stereo
Codec ID : 55
Codec ID/Hint : MP3
Duration : 43mn 12s
Bit rate mode : Constant
Bit rate : 128 Kbps
Channel(s) : 2 channels
Sampling rate : 48.0 KHz
Compression mode : Lossy
Stream size : 39.6 MiB (9%)
Alignment : Aligned on interleaves
Interleave, duration : 42 ms (1.00 video frame)
Interleave, preload duration : 504 ms
Writing library : LAME3.98r
Encoding settings : -m j -V 4 -q 2 -lowpass 17 -b 128


На виду скачать торрент


pb.wtf



Скачать На виду через торрент http://pic.kartinco.top/images/8/bq3mn.jpg Скачать фильм На виду через торрент бесплантно в хорошем качестве Описание: Сериал повествует о жизни федерального пристава программы по защите свидетелей, которая вынуждена скрывать свою рискованную, ... 10 10 2
Торрент: Зарегистрирован [2014-11-10 11:14] · скачан: 10 раз
Статус: √ проверено
Размер: 5.72 GB
Как cкачать? Как скачать На виду через торрент | qTorrent

28-11-2019 20:33  

Отключить всю рекламу на сайте

    Дорогой пользователь! Огромная просьба, поблагодарите релизера, оцените раздачу и оставьте свои комментарий, если Вы скачали На виду через торрент бесплатно! Внесите свою лепту в развитие PiratBit!
    Комментировать посты могут только пользователи прошедшие не сложную регистрацию
    Показать сообщения:    

    На виду через торрент
    Скачать бесплатно На виду
    На виду скачать торрент
    На виду смотреть онлайн
    Cкачать фильм На виду бесплатно
    На виду скачать торрент в хорошем качестве
    На виду смотреть онлайн бесплатно в хорошем качестве


    Вы не можете начинать темы
    Вы не можете отвечать на сообщения
    Вы не можете редактировать свои сообщения
    Вы не можете удалять свои сообщения
    Вы не можете голосовать в опросах
    Вы не можете прикреплять файлы к сообщениям
    Вы можете скачивать файлы