Ссылка на приватное зеркало нашего сайта всего за 1$. Внимание количество ограничено!!!

2 сезон

iTunes

1 сезон

1

iTunes

iTunes

iTunes

1 сезон

RePack

30

ИГРА 18+

pack

ВАЖНО

!!Акция!!

Alien_RageХит недели

RePack

MK11
pack

Забери бонус

RePack

jed

!!Акция!!

Alien_Rage

RePack

fifa19

RePack

Assassins Creed: Odyssey

RePack

NEED FOR SPEED™ PAYBACK

4 сезон

9 сезон

Бесстыжие 9 сезон

Все сериалы

все сериалы на PB.wtf

RePack

FAR CRY 5
  

Моё лето пинг-понга / Ping Pong Summer (Майкл Талли ) [2014, комедия, BDRip 1080p, Профессиональный многоголосый] pb.wtf

Моё лето пинг-понга через торрент pb.wtf

Размер: 6.67 GB | Добавлен: 5 лет 11 мес. назад | Торрент скачан:69 раз
Скачать  

10-11-2014 15:33 Моё лето пинг-понга Скачать торрент  

Информация о фильме

Название: Моё лето пинг-понга

Оригинальное название: Ping Pong Summer

Год выпуска: 2014

Жанр: комедия

Выпущено: США

Продолжительность: 01:31:21

Озвучивание: Профессиональное (многоголосое)

Субтитры: English

Режиссер: Майкл Талли

В ролях: Лиа Томпсон, Эми Седарис, Сьюзен Сарандон, Джон Ханна, Марселло Конте, Джозеф МакКотри, Энди Риддл, Эмми Шокли

Описание:

Главным героем комедии Моё лето пинг-понга является юный Рэд Миракл. Этот застенчивый подросток просто обожает музыку и настольный теннис. Свои летние каникулы он вместе с родителями проводит в Оушэн Сити, что в Мэриленде. Здесь парень не только находит себе лучшего друга и встречает девушку, которая станет его первой любовью, но и сталкивается с насмешками и издевательствами со стороны местных хулиганов. К счастью, его таинственная соседка становится наставницей мальчика и помогает ему справиться со многими проблемами.



Файл
Качество: BDRip 1080p [GECKOS]

Формат: MKV

Видео кодек: AVC

Аудио кодек:DTS, AC3

Видео: 9632 kb/s, 1920x1040, 23,976 fps

Аудио: Russian: AC3, 192 kb/s (2 ch) / 48 kHz

Аудио2: English: AC3, 640 kb/s (6 ch)/ 48 kHz

Дополнительно: Сохранены оригинальные чаптеры как на Blu-Ray

------------

Скачать: Сэмпл

------------
General
Ping.Pong.Summer.2014.Blu.Ray.1080p.CINEMANIA.mkv
Format : Matroska
Format version : Version 4 / Version 2
File size : 6.67 GiB
Duration : 1h 31mn
Overall bit rate : 10.5 Mbps
Movie name : Release Group CINEMANIA
Encoded date : UTC 2014-11-06 09:00:48
Writing application : mkvmerge v7.3.0 ('Nouages') 64bit built on Oct 22 2014 18:53:34
Writing library : libebml v1.3.0 + libmatroska v1.4.1

Video
ID : 1
Format : AVC
Format/Info : Advanced Video Codec
Format profile : High@L4.1
Format settings, CABAC : Yes
Format settings, ReFrames : 4 frames
Codec ID : V_MPEG4/ISO/AVC
Duration : 1h 31mn
Bit rate : 9 632 Kbps
Width : 1 920 pixels
Height : 1 040 pixels
Display aspect ratio : 1.85:1
Frame rate mode : Constant
Frame rate : 23.976 fps
Color space : YUV
Chroma subsampling : 4:2:0
Bit depth : 8 bits
Scan type : Progressive
Bits/(Pixel*Frame) : 0.201
Stream size : 6.01 GiB (90%)
Title : Release Group CINEMANIA
Writing library : x264 core 142 r2431 ac76440
Encoding settings : cabac=1 / ref=4 / deblock=1:0:0 / analyse=0x3:0x133 / me=umh / subme=7 / psy=1 / psy_rd=1.00:0.00 / mixed_ref=1 / me_range=16 / chroma_me=1 / trellis=1 / 8x8dct=1 / cqm=0 / deadzone=21,11 / fast_pskip=0 / chroma_qp_offset=-2 / threads=18 / lookahead_threads=3 / sliced_threads=0 / nr=0 / decimate=1 / interlaced=0 / bluray_compat=0 / constrained_intra=0 / bframes=3 / b_pyramid=2 / b_adapt=1 / b_bias=0 / direct=1 / weightb=1 / open_gop=0 / weightp=2 / keyint=250 / keyint_min=23 / scenecut=40 / intra_refresh=0 / rc_lookahead=40 / rc=2pass / mbtree=1 / bitrate=9632 / ratetol=1.0 / qcomp=0.60 / qpmin=0 / qpmax=69 / qpstep=4 / cplxblur=20.0 / qblur=0.5 / ip_ratio=1.40 / aq=1:1.00
Language : English
Default : Yes
Forced : No

Audio #1
ID : 2
Format : AC-3
Format/Info : Audio Coding 3
Mode extension : CM (complete main)
Format settings, Endianness : Big
Codec ID : A_AC3
Duration : 1h 31mn
Bit rate mode : Constant
Bit rate : 192 Kbps
Channel(s) : 2 channels
Channel positions : Front: L R
Sampling rate : 48.0 KHz
Bit depth : 16 bits
Compression mode : Lossy
Stream size : 125 MiB (2%)
Title : Официальная озвучка
Language : Russian
Default : Yes
Forced : Yes

Audio #2
ID : 3
Format : AC-3
Format/Info : Audio Coding 3
Mode extension : CM (complete main)
Format settings, Endianness : Big
Codec ID : A_AC3
Duration : 1h 31mn
Bit rate mode : Constant
Bit rate : 640 Kbps
Channel(s) : 6 channels
Channel positions : Front: L C R, Side: L R, LFE
Sampling rate : 48.0 KHz
Bit depth : 16 bits
Compression mode : Lossy
Stream size : 418 MiB (6%)
Language : English
Default : No
Forced : No

Text #2
ID : 5
Format : UTF-8
Codec ID : S_TEXT/UTF8
Codec ID/Info : UTF-8 Plain Text
Language : English
Default : No
Forced : No

Menu
00:00:00.000 : en:00:00:00.000
00:06:20.505 : en:00:06:20.505
00:14:40.421 : en:00:14:40.421
00:21:49.058 : en:00:21:49.058
00:29:08.872 : en:00:29:08.872
00:37:54.939 : en:00:37:54.939
00:43:17.762 : en:00:43:17.762
00:50:47.836 : en:00:50:47.836
00:59:43.371 : en:00:59:43.371
01:07:13.821 : en:01:07:13.821
01:14:44.563 : en:01:14:44.563
01:27:20.444 : en:01:27:20.444
------------

Релиз группы: pb.wtf



Скачать Моё лето пинг-понга через торрент http://i67.fastpic.ru/big/2014/1110/07/496114b115f38db4d4c69c2c7d52fa07.jpg Скачать фильм Моё лето пинг-понга через торрент бесплантно в хорошем качестве Описание: Главным героем комедии Моё лето пинг-понга является юный Рэд Миракл. Этот застенчивый подросток просто обожает музыку и ... 10 10 6
Торрент: Зарегистрирован [2014-11-10 15:33] · скачан: 69 раз
Статус: √ проверено
Размер: 6.67 GB
Как cкачать? Как скачать Моё лето пинг-понга через торрент | qTorrent

% Раздел Тема Автор DL S | L
Фильмы 2014 [DVDrip, WEB-DLRip, HDrip] [ 1.37 GB ] Моё лето пинг-понга / Ping Pong Summer [2014 HDRip многоголосый] Ворон Скачать
1 | 0

28-11-2019 20:33  

Отключить всю рекламу на сайте

    Дорогой пользователь! Огромная просьба, поблагодарите релизера, оцените раздачу и оставьте свои комментарий, если Вы скачали Моё лето пинг-понга через торрент бесплатно! Внесите свою лепту в развитие PiratBit!
    Комментировать посты могут только пользователи прошедшие не сложную регистрацию
    Показать сообщения:    

    Моё лето пинг-понга через торрент
    Скачать бесплатно Моё лето пинг-понга
    Моё лето пинг-понга скачать торрент
    Моё лето пинг-понга смотреть онлайн
    Cкачать фильм Моё лето пинг-понга бесплатно
    Моё лето пинг-понга скачать торрент в хорошем качестве
    Моё лето пинг-понга смотреть онлайн бесплатно в хорошем качестве


    Вы не можете начинать темы
    Вы не можете отвечать на сообщения
    Вы не можете редактировать свои сообщения
    Вы не можете удалять свои сообщения
    Вы не можете голосовать в опросах
    Вы не можете прикреплять файлы к сообщениям
    Вы можете скачивать файлы