Ссылка на приватное зеркало нашего сайта всего за 1$. Внимание количество ограничено!!!

2 сезон

iTunes

1 сезон

1

iTunes

iTunes

iTunes

1 сезон

RePack

30

ИГРА 18+

pack

ВАЖНО

!!Акция!!

Alien_RageХит недели

RePack

MK11
pack

Забери бонус

RePack

jed

!!Акция!!

Alien_Rage

RePack

fifa19

RePack

Assassins Creed: Odyssey

RePack

NEED FOR SPEED™ PAYBACK

4 сезон

9 сезон

Бесстыжие 9 сезон

Все сериалы

все сериалы на PB.wtf

RePack

FAR CRY 5
  

Дом крокодилов / Das Haus der Krokodile (Сирил Босс, Филипп Штеннерт) [2012 г., детектив, приключения, семейный, BDRip 720p, Профессиональный многоголосый] pb.wtf

Дом крокодилов через торрент pb.wtf

Размер: 5.68 GB | Добавлен: 5 лет 11 мес. назад | Торрент скачан:82 раза
Скачать  

10-11-2014 15:43 Дом крокодилов Скачать торрент  

Информация о фильме

Название: Дом крокодилов

Оригинальное название: Das Haus der Krokodile / Victor and the Secret of Crocodile Mansion

Год выхода: 2012

Выпущено: Германия

Продолжительность: 01:34:58

Озвучивание: Профессиональное (многоголосое) [ТК Семейное HD]

Субтитры: Russian [Олеся Вульф], English

Жанр: детектив, приключения, семейный

Режиссер: Сирил Босс, Филипп Штеннерт

В ролях: Кристо Феркич, Йоанна Феркич, Вийессна Феркич, Кристоф Мария Гербст, Гудрун Риттер, Вальдемар Кобус, Элена Охснер, Уве Фридрихсен, Сусанна Беркхемер

Описание:

Семейство Ларош перебираются в доставшийся им от дяди старинный особняк, заполненный настоящим антиквариатом. Вскоре родители уезжают по делам, оставив 11-летнего сына Виктора на попечение двух его старших сестер. Виктор необычный мальчик: игре со сверстниками он предпочитает обследование старого дома и поиски приключений. И хотя ему запрещено трогать старые вещи и заходить в дядин кабинет, Виктор не следует запретам и случайно открывает тайник, спрятанный в письменном столе, а в тайнике находит альбом с рисунками 11 летней Сесилии Ларош.

От сестер Виктор узнает, что так звали дядину дочь, которая умерла 40 лет назад при невыясненных обстоятельствах. Используя рисунки девочки в качестве ключа для разгадывания тайны, Виктор принимается за собственное расследование. Среди вещей дяди есть чучела крокодилов, на которые постоянно натыкается мальчик, а в альбоме Сесилии он находит спрятанную и зашифрованную записку, юному детективу остается понять скрытые подсказки и следовать им.



Файл

Качество: BDRip 720p [EPHEMERiD]

Формат: MKV

Видео кодек: AVC

Аудио кодек:DTS, AC3

Видео: 6690 kb/s, 1920x816, 23,976 fps

Аудио: Russian: AC3, 192 kb/s (2 ch) / 48 kHz

Аудио: German: DTS, 1510 kb/s (6 ch)/ 48 kHz

Дополнительно: Сохранены оригинальные чаптеры как на Blu-ray
General
Victor.and.the.Secret.of.Crocodile.Mansion.2012.Blu.Ray.1080p.CINEMANIA.mkv
Format : Matroska
Format version : Version 4 / Version 2
File size : 5.68 GiB
Duration : 1h 34mn
Overall bit rate : 8 562 Kbps
Movie name : Release Group CINEMANIA
Encoded date : UTC 2014-11-05 13:35:58
Writing application : mkvmerge v7.3.0 ('Nouages') 64bit built on Oct 22 2014 18:53:34
Writing library : libebml v1.3.0 + libmatroska v1.4.1

Video
ID : 1
Format : AVC
Format/Info : Advanced Video Codec
Format profile : High@L4.1
Format settings, CABAC : Yes
Format settings, ReFrames : 5 frames
Codec ID : V_MPEG4/ISO/AVC
Duration : 1h 34mn
Bit rate : 6 690 Kbps
Width : 1 920 pixels
Height : 816 pixels
Display aspect ratio : 2.35:1
Frame rate mode : Constant
Frame rate : 24.000 fps
Color space : YUV
Chroma subsampling : 4:2:0
Bit depth : 8 bits
Scan type : Progressive
Bits/(Pixel*Frame) : 0.178
Stream size : 4.44 GiB (78%)
Title : Release Group CINEMANIA
Writing library : x264 core 128 r2216 198a7ea
Encoding settings : cabac=1 / ref=5 / deblock=1:-1:-1 / analyse=0x3:0x113 / me=umh / subme=7 / psy=1 / psy_rd=1.00:0.15 / mixed_ref=1 / me_range=16 / chroma_me=1 / trellis=1 / 8x8dct=1 / cqm=0 / deadzone=21,11 / fast_pskip=0 / chroma_qp_offset=-3 / threads=18 / lookahead_threads=3 / sliced_threads=0 / nr=0 / decimate=1 / interlaced=0 / bluray_compat=0 / constrained_intra=0 / bframes=3 / b_pyramid=2 / b_adapt=1 / b_bias=0 / direct=1 / weightb=1 / open_gop=0 / weightp=2 / keyint=250 / keyint_min=24 / scenecut=40 / intra_refresh=0 / rc_lookahead=40 / rc=crf / mbtree=1 / crf=20.0 / qcomp=0.60 / qpmin=0 / qpmax=69 / qpstep=4 / ip_ratio=1.40 / aq=1:1.00
Default : Yes
Forced : No

Audio #1
ID : 2
Format : AC-3
Format/Info : Audio Coding 3
Mode extension : CM (complete main)
Format settings, Endianness : Big
Codec ID : A_AC3
Duration : 1h 34mn
Bit rate mode : Constant
Bit rate : 192 Kbps
Channel(s) : 2 channels
Channel positions : Front: L R
Sampling rate : 48.0 KHz
Bit depth : 16 bits
Compression mode : Lossy
Stream size : 130 MiB (2%)
Title : ТК Семейное HD
Language : Russian
Default : Yes
Forced : Yes

Audio #2
ID : 3
Format : DTS
Format/Info : Digital Theater Systems
Mode : 16
Format settings, Endianness : Big
Codec ID : A_DTS
Duration : 1h 34mn
Bit rate mode : Constant
Bit rate : 1 509 Kbps
Channel(s) : 6 channels
Channel positions : Front: L C R, Side: L R, LFE
Sampling rate : 48.0 KHz
Bit depth : 24 bits
Compression mode : Lossy
Stream size : 1.00 GiB (18%)
Language : German
Default : No
Forced : No

Text #2
ID : 5
Format : UTF-8
Codec ID : S_TEXT/UTF8
Codec ID/Info : UTF-8 Plain Text
Title : Олеся Вульф
Language : Russian
Default : No
Forced : No

Text #3
ID : 6
Format : UTF-8
Codec ID : S_TEXT/UTF8
Codec ID/Info : UTF-8 Plain Text
Language : English
Default : No
Forced : No

Menu
00:00:00.000 : en:00:00:00.000
00:04:30.917 : en:00:04:30.917
00:10:03.333 : en:00:10:03.333
00:14:55.333 : en:00:14:55.333
00:19:52.292 : en:00:19:52.292
00:25:43.792 : en:00:25:43.792
00:31:26.750 : en:00:31:26.750
00:35:36.125 : en:00:35:36.125
00:41:51.167 : en:00:41:51.167
00:46:53.750 : en:00:46:53.750
00:52:33.333 : en:00:52:33.333
00:58:17.542 : en:00:58:17.542
01:03:58.125 : en:01:03:58.125
01:09:03.833 : en:01:09:03.833
01:14:30.458 : en:01:14:30.458
01:19:21.417 : en:01:19:21.417
01:23:48.083 : en:01:23:48.083
01:29:55.375 : en:01:29:55.375
Скачать: Сэмпл

Релиз группы: pb.wtf



Скачать Дом крокодилов через торрент http://i68.fastpic.ru/big/2014/1110/07/ebaa5c805070b9bd66237efbc19d7f07.png Скачать фильм Дом крокодилов через торрент бесплантно в хорошем качестве Описание: Семейство Ларош перебираются в доставшийся им от дяди старинный особняк, заполненный настоящим антиквариатом. Вскоре родители ... 10 10 7
Торрент: Зарегистрирован [2014-11-10 15:43] · скачан: 82 раз
Статус: √ проверено
Размер: 5.68 GB
Как cкачать? Как скачать Дом крокодилов через торрент | qTorrent

% Раздел Тема Автор DL S | L
Фильмы 2012 [ 1.46 GB ] Дом крокодилов / Das Haus der Krokodile [2012 HDRip многоголосый] кэп Скачать
1 | 0
Фильмы 2012 [ 1.67 GB ] Дом крокодилов / Das Haus der Krokodile [2012 HDRip VO] lev1244v Скачать
1 | 0

28-11-2019 20:33  

Отключить всю рекламу на сайте

    Дорогой пользователь! Огромная просьба, поблагодарите релизера, оцените раздачу и оставьте свои комментарий, если Вы скачали Дом крокодилов через торрент бесплатно! Внесите свою лепту в развитие PiratBit!
    Комментировать посты могут только пользователи прошедшие не сложную регистрацию
    Показать сообщения:    

    Дом крокодилов через торрент
    Скачать бесплатно Дом крокодилов
    Дом крокодилов скачать торрент
    Дом крокодилов смотреть онлайн
    Cкачать фильм Дом крокодилов бесплатно
    Дом крокодилов скачать торрент в хорошем качестве
    Дом крокодилов смотреть онлайн бесплатно в хорошем качестве


    Вы не можете начинать темы
    Вы не можете отвечать на сообщения
    Вы не можете редактировать свои сообщения
    Вы не можете удалять свои сообщения
    Вы не можете голосовать в опросах
    Вы не можете прикреплять файлы к сообщениям
    Вы можете скачивать файлы