2 сезон

iTunes

MVO

1

2 сезон

iTunes

iTunes

1 сезон

RePack

30

Новинка

ВАЖНО

ИГРА 18+

pack

RePack

MK11
pack

Легкие деньги

RePack

jed

RePack

fifa19

RePack

RDR2

RePack

NEED FOR SPEED™ PAYBACK

4 сезон

9 сезон

Бесстыжие 9 сезон

Все сериалы

все сериалы на PB.wtf

RePack

FAR CRY 5

Anonymous, добрый вечер, мы не успеваем собрать деньги на оплату серверов за декабрь и январь, помогите нам пожалуйста в это трудное время. В качестве благодарности мы отключим Вам всю рекламу на сайте (укажите свой ник в строку Ваше имя)!

×
  
Magnet ссылка

Вторая мировая война. За закрытыми дверьми / World War Two - Behind Closed Doors / 1-6 (6) (Лоуренс Рис, Эндрю Уильямс / Laurence Rees, Andrew Williams)[2008 г., Документальный, военный, история, биография, DVDRip] VO+ Original pb.wtf

Вторая мировая война. За закрытыми дверьми через торрент pb.wtf

Размер: 4.99 GB | Добавлен: 6 лет 2 мес. назад | Торрент скачан:69 раз
Скачать  

11-11-2014 06:26 Вторая мировая война. За закрытыми дверьми Скачать торрент  

Вторая мировая война. За закрытыми дверьми / World War Two - Behind Closed Doors
Год выпуска: 2008
Страна: Великобритания
Жанр: Документальный, военный, история, биография
Продолжительность: ~ 00:52:10
Перевод: Профессиональный одноголосый

Режиссер: Лоуренс Рис, Эндрю Уильямс / Laurence Rees, Andrew Williams



Описание: Впервые данный цикл рассказывает истинную историю о столкновениях Сталина сначала с нацистами, а затем с Черчиллем и Рузвельтом, а также о том, какое огромное влияние оказали эти события на Вторую Мировую Войну, а позже и на судьбу всей послевоенной Европы. Фильм представляет собой захватывающее сочетание высокой политики - включая историю о встречах союзников в Тегеране, Ялте и Потсдаме - и драматического опыта тех личностей, которые на себе несли последствия принятых решений. Невообразимые трагические факты, взятые из архивных материалов, раскрывают события, во время которых великие лидеры решали судьбу послевоенного мира. Эти решения имели мгновенный и зачастую ужасающий эффект на простых жителей. Подробности этой истории будут раскрыты с помощью документальных архивных съемок и откровенных интервью бывших советских милиционеров, моряков, служивших в арктических конвоях, и ветеранов Красной Армии, участвовавших в сражениях на восточном фронте. Сценаристом и продюсером цикла выступил кинорежиссер Лоуренс Рис, лауреат и призер многих премий (Освенцим: Нацисты и "Последнее Решение", Война Века, Нацисты - Историческое Предупреждение), представив абсолютно новое понимание многих секретов и драматических событий Второй Мировой Войны.

Качество: DVDRip
Формат: AVI
Видео кодек: XviD
Аудио кодек: AC3
Видео: 688x384 (1.79:1), 25 fps, ~1669 kbps avg, 0.25 bit/pixel
Аудио#1: 48 kHz, Dolby Digital, 2/0 (L,R) ch, ~192 kbps - Русский
Аудио#2: 48 kHz, Dolby Digital, 2/0 (L,R) ch, ~192 kbps - Оригинал





General
Complete name : F:\Vtoraja.mirovaja.vojna.Za.zakrytymi.dverjami.(6.serij.iz.6).2008.XviD.DVDRip.Andripan\Vtoraja.mirovaja.vojna.Za.zakrytymi.dverjami.(1.seriya.iz.6).2008.XviD.DVDRip.Andripan.avi
Format : AVI
Format/Info : Audio Video Interleave
File size : 773 MiB
Duration : 52mn 15s
Overall bit rate : 2 069 Kbps
Writing application : VirtualDubMod 1.5.10.2 (build 2540/release)
Writing library : VirtualDubMod build 2540/release

Video
ID : 0
Format : MPEG-4 Visual
Format profile : Advanced Simple@L5
Format settings, BVOP : 2
Format settings, QPel : No
Format settings, GMC : No warppoints
Format settings, Matrix : Custom
Codec ID : XVID
Codec ID/Hint : XviD
Duration : 52mn 15s
Bit rate : 1 671 Kbps
Width : 688 pixels
Height : 384 pixels
Display aspect ratio : 16:9
Frame rate : 25.000 fps
Color space : YUV
Chroma subsampling : 4:2:0
Bit depth : 8 bits
Scan type : Progressive
Compression mode : Lossy
Bits/(Pixel*Frame) : 0.253
Stream size : 624 MiB (81%)
Writing library : XviD 65

Audio #1
ID : 1
Format : AC-3
Format/Info : Audio Coding 3
Mode extension : CM (complete main)
Format settings, Endianness : Big
Codec ID : 2000
Duration : 52mn 14s
Bit rate mode : Constant
Bit rate : 192 Kbps
Channel(s) : 2 channels
Channel positions : Front: L R
Sampling rate : 48.0 KHz
Bit depth : 16 bits
Compression mode : Lossy
Stream size : 71.8 MiB (9%)
Alignment : Split accross interleaves
Interleave, duration : 40 ms (1.00 video frame)
Interleave, preload duration : 500 ms

Audio #2
ID : 2
Format : AC-3
Format/Info : Audio Coding 3
Mode extension : CM (complete main)
Format settings, Endianness : Big
Codec ID : 2000
Duration : 52mn 14s
Bit rate mode : Constant
Bit rate : 192 Kbps
Channel(s) : 2 channels
Channel positions : Front: L R
Sampling rate : 48.0 KHz
Bit depth : 16 bits
Compression mode : Lossy
Stream size : 71.8 MiB (9%)
Alignment : Split accross interleaves
Interleave, duration : 40 ms (1.00 video frame)
Interleave, preload duration : 500 ms


Вторая мировая война. За закрытыми дверьми скачать торрент


pb.wtf



Скачать Вторая мировая война. За закрытыми дверьми через торрент http://pic.kartinco.top/images/8/n5crw.jpg Скачать фильм Вторая мировая война. За закрытыми дверьми через торрент бесплантно в хорошем качестве Описание: Впервые данный цикл рассказывает истинную историю о столкновениях Сталина сначала с нацистами, а затем с Черчиллем и Рузвельтом, ... 9.8 10 6
Торрент: Зарегистрирован [2014-11-11 06:26] · скачан: 69 раз
Статус: √ проверено
Размер: 4.99 GB
Как cкачать? Как скачать Вторая мировая война. За закрытыми дверьми через торрент | UTorrent

28-11-2019 20:33  

Отключить всю рекламу на сайте

    Дорогой пользователь! Огромная просьба, поблагодарите релизера, оцените раздачу и оставьте свои комментарий, если Вы скачали Вторая мировая война. За закрытыми дверьми через торрент бесплатно! Внесите свою лепту в развитие PiratBit!
    Комментировать посты могут только пользователи прошедшие не сложную регистрацию
    Показать сообщения:    

    Вторая мировая война. За закрытыми дверьми через торрент
    Скачать бесплатно Вторая мировая война. За закрытыми дверьми
    Вторая мировая война. За закрытыми дверьми скачать торрент
    Вторая мировая война. За закрытыми дверьми смотреть онлайн
    Cкачать фильм Вторая мировая война. За закрытыми дверьми бесплатно
    Вторая мировая война. За закрытыми дверьми скачать торрент в хорошем качестве
    Вторая мировая война. За закрытыми дверьми смотреть онлайн бесплатно в хорошем качестве


    Вы не можете начинать темы
    Вы не можете отвечать на сообщения
    Вы не можете редактировать свои сообщения
    Вы не можете удалять свои сообщения
    Вы не можете голосовать в опросах
    Вы не можете прикреплять файлы к сообщениям
    Вы можете скачивать файлы