Наша группа ВК в очередной раз забанена мы уходим в Телеграм, присоединяйтесь!!!

Лицензия

30

iTunes

мы

iTunes

1

1 сезон

Чернобыль

iTunes

1+1

iTunes

Закатать в асфальт

8 сезон

Игра престолов

1 сезон

Ральф против интернета

ИГРА 18+

pack

ВАЖНО

!!Акция!!

Alien_RageХит недели

RePack

Resident Evil 21
pack

RePack

Metro:Exodus

!!Акция!!

Alien_Rage

RePack

fifa19

RePack

Assassins Creed: Odyssey

RePack

NEED FOR SPEED™ PAYBACK

3 сезон

9 сезон

Бесстыжие 9 сезон

Все сериалы

все сериалы на PB.wtf

RePack

FAR CRY 5
Ребята, катастрофически не хватает 2730р. для оплаты серверов за АПРЕЛЬ (всвязи с блокировками трафик упал в 3 раза), 1-2р., выручайте.
  

Синдбад-мореход / Sinbad, the Sailor (Ричард Уоллес / Richard Wallace) [1947, США, фэнтези, мелодрама, приключения, DVDRip,Профессиональный многоголосый pb.wtf

Синдбад-мореход через торрент pb.wtf

Размер: 1.99 GB | Добавлен: 4 года 6 мес. назад | Торрент скачан:26 раз
Скачать  

11-11-2014 14:40 Синдбад-мореход Скачать торрент  

Синдбад-мореход / Sinbad, the Sailor

Год выпуска: 1947
Страна: США
Жанр: фэнтези, мелодрама, приключения

Продолжительность: 01:56:52
Перевод: Профессиональный многоголосый
Субтитры: Нет
Режиссер: Ричард Уоллес / Richard Wallace
В ролях: Дуглас Фэрбенкс мл. (Sinbad), Морин О’Хара (Shireen), Вальтер Слезак (Melik), Энтони Куинн (Emir), Джордж Тобиаш (Abbu), Джейн Грир (Pirouze), Майк Мазурки (Yusuf), Шелдон Леонард (Auctioneer), Алан Напье (Aga), Джон Мильян (Moga), Брэд Декстер (Muallin), Эдди Эбдо (Chanter, в титрах не указан)
Описание:
Картина рассказывает о поиске Синбадом загадочного острова Дерюбар, где спрятан клад великого Александра Македонского. В поисках сокровищ ему помогает красавица Ширин, которую отважный герой похитил из гарема эмира Даибула. Эмир, узнав об этом, бросился в погоню за влюбленными с целью вернуть беглянку, но его планам не суждено осуществится. Храбрый Синбад выйдет победителем из этой истории, ведь у восточной сказки всегда должен быть счастливый финал...
Рейтинг
kinopoisk.ru: 6.760 (87)
imdb.com: 6.40 (1224)
Качество: DVDRip
Формат: AVI
Видео кодек: XviD
Аудио кодек:AC3
Видео: XviD, 720x544 (4:3), 2241 kbps, 25 fps, 0,229 bpp
Аудио: AC3 / 2.0 / 48 kHz / 192 kbps / 16 bit

General
Complete name : D:\torrent\1. Синдбад - мореход. 1947.avi
Format : AVI
Format/Info : Audio Video Interleave
Format profile : OpenDML
File size : 1.99 GiB
Duration : 1h 56mn
Overall bit rate : 2 443 Kbps
Writing application : VirtualDubMod 1.5.4.1 (build 2178/release)
Writing library : VirtualDubMod build 2178/release

Video
ID : 0
Format : MPEG-4 Visual
Format profile : Advanced Simple@L5
Format settings, BVOP : 1
Format settings, QPel : No
Format settings, GMC : No warppoints
Format settings, Matrix : Custom
Codec ID : XVID
Codec ID/Hint : XviD
Duration : 1h 56mn
Bit rate : 2 242 Kbps
Width : 720 pixels
Height : 544 pixels
Display aspect ratio : 4:3
Frame rate : 25.000 fps
Color space : YUV
Chroma subsampling : 4:2:0
Bit depth : 8 bits
Scan type : Progressive
Compression mode : Lossy
Bits/(Pixel*Frame) : 0.229
Stream size : 1.83 GiB (92%)
Writing library : XviD 58

Audio
ID : 1
Format : AC-3
Format/Info : Audio Coding 3
Mode extension : CM (complete main)
Codec ID : 2000
Duration : 1h 56mn
Bit rate mode : Constant
Bit rate : 192 Kbps
Channel(s) : 2 channels
Channel positions : Front: L R
Sampling rate : 48.0 KHz
Bit depth : 16 bits
Compression mode : Lossy
Stream size : 160 MiB (8%)
Alignment : Split accross interleaves
Interleave, duration : 96 ms (2.40 video frames)
Interleave, preload duration : 96 ms



pb.wtf



Скачать Синдбад-мореход через торрент http://i5.imageban.ru/out/2014/11/11/5a4b55518637683e04ec60fbfafc58a0.jpg Скачать фильм Синдбад-мореход через торрент бесплантно в хорошем качестве Описание: Картина рассказывает о поиске Синбадом загадочного острова Дерюбар, где спрятан клад великого Александра Македонского. В поисках ... 10 10 11
Info! Золотая раздача, скачанное не засчитывается.
Торрент: Зарегистрирован [2014-11-11 14:40] · скачан: 26 раз
Статус: √ проверено
Размер: 1.99 GB
Как cкачать? Как скачать Синдбад-мореход через торрент | qTorrent


>> Регистрируемся здесь <<






Отзывы и комментарии о схеме читаем и пишем здесь: ---> Отзывы и комментарии о схеме

Новые благодарочки в телеграм довольных пользователей:
скриншот   скриншот   скриншот   скриншот   скриншот
    Дорогой пользователь! Огромная просьба, поблагодарите релизера, оцените раздачу и оставьте свои комментарий, если Вы скачали Синдбад-мореход через торрент бесплатно! Внесите свою лепту в развитие PiratBit!
    Комментировать посты могут только пользователи прошедшие не сложную регистрацию
    Показать сообщения:    

    Синдбад-мореход через торрент
    Скачать бесплатно Синдбад-мореход
    Синдбад-мореход скачать торрент
    Синдбад-мореход смотреть онлайн
    Cкачать фильм Синдбад-мореход бесплатно
    Синдбад-мореход скачать торрент в хорошем качестве
    Синдбад-мореход смотреть онлайн бесплатно в хорошем качестве


    Вы не можете начинать темы
    Вы не можете отвечать на сообщения
    Вы не можете редактировать свои сообщения
    Вы не можете удалять свои сообщения
    Вы не можете голосовать в опросах
    Вы не можете прикреплять файлы к сообщениям
    Вы можете скачивать файлы