Мега распродажа FORZA HORIZON 4 ULTIMATE+ВСЕ DLC+ОНЛАЙН всего за 499р. 349 руб. (супер цена). Внимание количество ограничено!!!

Лицензия

30

iTunes

мы

iTunes

1

1 сезон

Чернобыль

1 сезон

Ральф против интернета

MVO

Покемон. Детектив Пикачу

8 сезон

Игра престолов

iTunes

1+1

ИГРА 18+

pack

ВАЖНО

!!Акция!!

Alien_RageХит недели

RePack

Resident Evil 21
pack

RePack

Metro:Exodus

!!Акция!!

Alien_Rage

RePack

fifa19

RePack

Assassins Creed: Odyssey

RePack

NEED FOR SPEED™ PAYBACK

3 сезон

9 сезон

Бесстыжие 9 сезон

Все сериалы

все сериалы на PB.wtf

RePack

FAR CRY 5
Ребята, катастрофически не хватает 2730р. для оплаты серверов за МАЙ (всвязи с блокировками трафик упал в 3 раза), 1-2р., выручайте.
  

Седьмое путешествие Синдбада / The 7th Voyage of Sinbad (Нэйтан Юран / Nathan Juran) [1958, США, фэнтези, боевик, приключения, DVDRip,Дубляж pb.wtf

Седьмое путешествие Синдбада через торрент pb.wtf

Размер: 1.45 GB | Добавлен: 4 года 7 мес. назад | Торрент скачан:29 раз
Скачать  

11-11-2014 15:12 Седьмое путешествие Синдбада Скачать торрент  

Седьмое путешествие Синдбада / The 7th Voyage of Sinbad

Год выпуска: 1958
Страна: США
Жанр: фэнтези, боевик, приключения, семейный

Продолжительность: 01:28:09
Перевод: Дубляж
Субтитры: Нет
Режиссер: Нэйтан Юран / Nathan Juran
В ролях: Кервин Мэтьюз (Sinbad), Кэтрин Грант (Princess Parisa), Ричард Айер (The Genie), Торин Тэтчер (Sokurah the Magician), Алек Мэнго (Caliph), Дэнни Грин (Karim), Харольд Каскет (Sultan), Альфред Браун (Harufa), Нана ДэХеррера (Sadi), Нино Фаланга (Gaunt Sailor), Луис Гуедес (Crewman), Виржилиу Тейшейра (Ali)
Описание:
Синдбад, желая избавить свою невесту от колдовских чар злого колдуна Сакуры, отправляется к волшебному острову, где его и его друзей поджидает множество опасностей и испытаний.
Синдбад должен победить мерзкого одноглазого циклопа и огромного дракона, сразиться с черным чародеем - и, в конце концов, одержав победу над силами зла и освободив от заклятья любимую, отправиться вперед, навстречу новым подвигам.
Рейтинг
kinopoisk.ru: 7.534 (943)
imdb.com: 7.20 (7037)
MPAA: G - Нет возрастных ограничений
Качество: DVDRip
Формат: AVI
Видео кодек: XviD
Аудио кодек:AC3
Видео: XviD, 720x400 (16:9), 2121 kbps, 23,976 fps, 0,307 bpp
Аудио: AC3 / 2.0 / 48 kHz / 224 kbps / 16 bit

General
Complete name : D:\torrent\2. Седьмое путешествие Синдбада. 1958.avi
Format : AVI
Format/Info : Audio Video Interleave
File size : 1.45 GiB
Duration : 1h 28mn
Overall bit rate : 2 355 Kbps
Writing application : VirtualDubMod 1.5.10.2 (build 2540/release)
Writing library : VirtualDubMod build 2540/release

Video
ID : 0
Format : MPEG-4 Visual
Format profile : Advanced Simple@L5
Format settings, BVOP : 2
Format settings, QPel : No
Format settings, GMC : No warppoints
Format settings, Matrix : Default (MPEG)
Codec ID : XVID
Codec ID/Hint : XviD
Duration : 1h 28mn
Bit rate : 2 121 Kbps
Width : 720 pixels
Height : 400 pixels
Display aspect ratio : 16:9
Frame rate : 23.976 fps
Color space : YUV
Chroma subsampling : 4:2:0
Bit depth : 8 bits
Scan type : Progressive
Compression mode : Lossy
Bits/(Pixel*Frame) : 0.307
Stream size : 1.31 GiB (90%)
Writing library : XviD 1.2.1 (UTC 2008-12-04)

Audio
ID : 1
Format : AC-3
Format/Info : Audio Coding 3
Mode extension : CM (complete main)
Codec ID : 2000
Duration : 1h 28mn
Bit rate mode : Constant
Bit rate : 224 Kbps
Channel(s) : 2 channels
Channel positions : Front: L R
Sampling rate : 48.0 KHz
Bit depth : 16 bits
Compression mode : Lossy
Stream size : 141 MiB (10%)
Alignment : Aligned on interleaves
Interleave, duration : 42 ms (1.00 video frame)
Interleave, preload duration : 512 ms



pb.wtf



Скачать Седьмое путешествие Синдбада через торрент http://i6.imageban.ru/out/2014/11/11/ecbf800bfca6bbf9c6b98e961ee57ff0.jpg Скачать фильм Седьмое путешествие Синдбада через торрент бесплантно в хорошем качестве Описание: Синдбад, желая избавить свою невесту от колдовских чар злого колдуна Сакуры, отправляется к волшебному острову, где его и его ... 10 10 9
Info! Золотая раздача, скачанное не засчитывается.
Торрент: Зарегистрирован [2014-11-11 15:12] · скачан: 29 раз
Статус: √ проверено
Размер: 1.45 GB
Как cкачать? Как скачать Седьмое путешествие Синдбада через торрент | qTorrent


>> Регистрируемся здесь <<






Отзывы и комментарии о схеме читаем и пишем здесь: ---> Отзывы и комментарии о схеме

Новые благодарочки в телеграм довольных пользователей:
скриншот   скриншот   скриншот   скриншот   скриншот
    Дорогой пользователь! Огромная просьба, поблагодарите релизера, оцените раздачу и оставьте свои комментарий, если Вы скачали Седьмое путешествие Синдбада через торрент бесплатно! Внесите свою лепту в развитие PiratBit!
    Комментировать посты могут только пользователи прошедшие не сложную регистрацию
    Показать сообщения:    

    Седьмое путешествие Синдбада через торрент
    Скачать бесплатно Седьмое путешествие Синдбада
    Седьмое путешествие Синдбада скачать торрент
    Седьмое путешествие Синдбада смотреть онлайн
    Cкачать фильм Седьмое путешествие Синдбада бесплатно
    Седьмое путешествие Синдбада скачать торрент в хорошем качестве
    Седьмое путешествие Синдбада смотреть онлайн бесплатно в хорошем качестве


    Вы не можете начинать темы
    Вы не можете отвечать на сообщения
    Вы не можете редактировать свои сообщения
    Вы не можете удалять свои сообщения
    Вы не можете голосовать в опросах
    Вы не можете прикреплять файлы к сообщениям
    Вы можете скачивать файлы