2 сезон

iTunes

MVO

1

2 сезон

iTunes

iTunes

1 сезон

RePack

30

Ultimate

ВАЖНО

ИГРА 18+

pack

RePack

MK11
pack

Легкие деньги

RePack

jed

RePack

fifa19

RePack

RDR2

RePack

NEED FOR SPEED™ PAYBACK

4 сезон

9 сезон

Бесстыжие 9 сезон

Все сериалы

все сериалы на PB.wtf

RePack

FAR CRY 5

Anonymous, доброй ночи, мы не успеваем собрать деньги на оплату серверов за декабрь и январь, помогите нам пожалуйста в это трудное время. В качестве благодарности мы отключим Вам всю рекламу на сайте (укажите свой ник в строку Ваше имя)!

×
  
Magnet ссылка

Грызущий ногти / Nailbiter (Патрик Ри) [2013 г., ужасы, WEB-DLRip, Профессиональный многоголосый "КиноПремиум HD"] pb.wtf

Грызущий ногти через торрент pb.wtf

Размер: 1.33 GB | Добавлен: 6 лет 2 мес. назад | Торрент скачан:226 раз
Скачать  

11-11-2014 18:17 Грызущий ногти Скачать торрент  

Грызущий ногти / Nailbiter
Год выпуска: 2013
Страна: США / Ministry Machine Productions, SenoReality Pictures
Жанр: ужасы
Продолжительность: 01:21:34
Перевод: Профессиональный многоголосый (КиноПремиум HD)
Режиссер: Патрик Ри

В ролях: Джойси Эппелл,Джон Д. Барнс,Эмили Борсоу,Джейсон Коффман,Том Сонрой,Анита Корделл,Мишель Дэвидсон,Йен Демпси,Бен Джеффри,Аарон Лоэ

Описание: В центре повествования семья Магуров, состоящая из матери алкоголички Жанет и ее трех дочерей, которые следуют в аэропорт за отцом семейства, прибывшем из-за границы. Ухудшившаяся погода и грозящий торнадо заставляют их укрыться в подземном убежище. Вскоре они обнаруживают, что там еще кто-то есть

Качество: WEB-DLRip
Формат: AVI
Видео кодек: XviD
Аудио кодек: AC3
Видео: MPEG4, XviD, 720x304 (2.35:1), 23.976 fps, 1 948 Kbps (0.371 bit/pixel)
Аудио: AC-3, 48.0 KHz, 6 ch, 384 Kbps, CBR


Общее
Полное имя : G:\кино\Грызущий ногти.2013.WEB-DLRip.avi
Формат : AVI
Формат/Информация : Audio Video Interleave
Размер файла : 1,33 Гбайт
Продолжительность : 1 ч. 21 м.
Общий поток : 2341 Кбит/сек
Программа кодирования : VirtualDubMod 1.5.10.3 | www.virtualdub-fr.org || (build 2550/release)
Библиотека кодирования : VirtualDubMod build 2550/release

Видео
Идентификатор : 0
Формат : MPEG-4 Visual
Профиль формата : Advanced Simple@L5
Параметр BVOP формата : 2
Параметр QPel формата : Нет
Параметр GMC формата : Без точки перехода
Параметр матрицы формата : Default (H.263)
Идентификатор кодека : XVID
Идентификатор кодека/Подсказка : XviD
Продолжительность : 1 ч. 21 м.
Битрейт : 1948 Кбит/сек
Ширина : 720 пикселей
Высота : 304 пикселя
Соотношение сторон : 2,35:1
Частота кадров : 23,976 кадра/сек
Цветовое пространство : YUV
Субдискретизация насыщенности : 4:2:0
Битовая глубина : 8 бит
Тип развёртки : Прогрессивная
Метод сжатия : С потерями
Бит/(Пиксели*Кадры) : 0.371
Размер потока : 1,11 Гбайт (83%)
Библиотека кодирования : XviD 1.2.1 (UTC 2008-12-04)

Аудио
Идентификатор : 1
Формат : AC-3
Формат/Информация : Audio Coding 3
Расширение режима : CM (complete main)
Параметр Endianness формата : Big
Идентификатор кодека : 2000
Продолжительность : 1 ч. 21 м.
Вид битрейта : Постоянный
Битрейт : 384 Кбит/сек
Каналы : 6 каналов
Расположение каналов : Front: L C R, Side: L R, LFE
Частота : 48,0 КГц
Битовая глубина : 16 бит
Метод сжатия : С потерями
Размер потока : 224 Мбайт (16%)
Выравнивание : Разделение по промежуткам
Продолжительность промежутка : 42 мс. (1,00 видеокадр)
Время предзагрузки промежутка : 500 мс.

pb.wtf



Скачать Грызущий ногти через торрент http://pic.kartinco.top/images/8/dxyku.jpg Скачать фильм Грызущий ногти через торрент бесплантно в хорошем качестве Описание: В центре повествования семья Магуров, состоящая из матери алкоголички Жанет и ее трех дочерей, которые следуют в аэропорт за ... 8.1 10 17
Торрент: Зарегистрирован [2014-11-11 18:17] · скачан: 226 раз
Статус: √ проверено
Размер: 1.33 GB
Как cкачать? Как скачать Грызущий ногти через торрент | UTorrent

% Раздел Тема Автор DL S | L
Фильмы 2013 [DVDrip, WEB-DLRip, HDrip] [ 1.38 GB ] Грызущий ногти / Nailbiter [2013 HDRip Ворон Скачать
1 | 0

28-11-2019 20:33  

Отключить всю рекламу на сайте


11-11-2014 18:32 Грызущий ногти Скачать торрент  

как фильм,отпишите!pb.wtf



11-11-2014 20:00 Грызущий ногти Скачать торрент  

2012 год, грайндхаус
"Страшный и ужасный ноктегрыз подкрадывается в ночи и грызёт ногти на ногах оставляя неровные края-это ужас ужасный для матери и 3-х дочерей!"pb.wtf



12-11-2014 01:00 Грызущий ногти Скачать торрент  

rofl rofl roflpb.wtf



12-11-2014 15:22 Грызущий ногти Скачать торрент  

:rofle:pb.wtf



13-11-2014 16:34 Грызущий ногти Скачать торрент  

:rofle:pb.wtf



28-03-2015 14:02 Грызущий ногти Скачать торрент  

бараныpb.wtf



    Дорогой пользователь! Огромная просьба, поблагодарите релизера, оцените раздачу и оставьте свои комментарий, если Вы скачали Грызущий ногти через торрент бесплатно! Внесите свою лепту в развитие PiratBit!
    Комментировать посты могут только пользователи прошедшие не сложную регистрацию
    Показать сообщения:    

    Грызущий ногти через торрент
    Скачать бесплатно Грызущий ногти
    Грызущий ногти скачать торрент
    Грызущий ногти смотреть онлайн
    Cкачать фильм Грызущий ногти бесплатно
    Грызущий ногти скачать торрент в хорошем качестве
    Грызущий ногти смотреть онлайн бесплатно в хорошем качестве


    Вы не можете начинать темы
    Вы не можете отвечать на сообщения
    Вы не можете редактировать свои сообщения
    Вы не можете удалять свои сообщения
    Вы не можете голосовать в опросах
    Вы не можете прикреплять файлы к сообщениям
    Вы можете скачивать файлы