Мега распродажа FORZA HORIZON 4 ULTIMATE+ВСЕ DLC+ОНЛАЙН всего за 499р. 349 руб. (супер цена). Внимание количество ограничено!!!

Лицензия

30

iTunes

мы

iTunes

1

1 сезон

Чернобыль

1 сезон

Ральф против интернета

MVO

Покемон. Детектив Пикачу

8 сезон

Игра престолов

iTunes

1+1

ИГРА 18+

pack

ВАЖНО

!!Акция!!

Alien_RageХит недели

RePack

Resident Evil 21
pack

RePack

Metro:Exodus

!!Акция!!

Alien_Rage

RePack

fifa19

RePack

Assassins Creed: Odyssey

RePack

NEED FOR SPEED™ PAYBACK

3 сезон

9 сезон

Бесстыжие 9 сезон

Все сериалы

все сериалы на PB.wtf

RePack

FAR CRY 5
Ребята, катастрофически не хватает 2730р. для оплаты серверов за МАЙ (всвязи с блокировками трафик упал в 3 раза), 1-2р., выручайте.
  

Я - Бог / Отверженные / Naan Kadavul (Бала / Bala) [2009 г., драма, DVDRip]MVO + VO pb.wtf

Я - Бог через торрент pb.wtf

Размер: 1.4 GB | Добавлен: 4 года 7 мес. назад | Торрент скачан:95 раз
Скачать  

12-11-2014 10:42 Я - Бог Скачать торрент  

Я - Бог / Отверженные / Naan Kadavul
Год выпуска: 2009
Страна: Индия
Жанр: драма
Продолжительность: 02:15:12
Перевод: Профессиональный (многоголосый закадровый) + Одноголосый закадровый

Режиссер: Бала / Bala



В ролях: Арья, Пуджа Умашанкар, Раджендран, Кришнамурти

Описание: Испугавшись страшных предсказаний астрологов, отец привозит маленького сына в Каси и бросает его там. Спустя много лет он находит своего ребенка за исполнением жутких обрядов над умершими, ибо теперь он агхори (аскет Шиваит). Он не поклоняется Богу, он сам - Бог. Для него нет законов, он никому и ничему не принадлежит. Он бог смерти, ибо может дать ее как наказание или избавление. Следуя предписаниям своего гуру агхори возвращается с отцом в деревню, чтобы навсегда отказаться от семьи и каких-либо привязанностей, как того требует его религия, не зная, что он явится карающим мечом зла и корысти, ибо он первый, кто не выносит смрад истинного греха.

Доп. информация: Сведение аудио #1: Th4K
Сведение аудио #2: soso4eg

Качество: DVDRip
Формат: AVI
Видео кодек: XviD
Аудио кодек: AC3
Видео: 640x256, 23.976 fps, 1088 kbps
Аудио#1: 48 kHz, 2 ch, 192 kbps [Red Media]
Аудио#2: 48 kHz, 2 ch, 192 kbps [VO] озв. по субтитрам Zarin@
Общее
Полное имя : F:\Я - Бог Отверженные\OTVERZHENNYE.2009.DVDRip.XviD.BwTorrents.avi
Формат : AVI
Формат/Информация : Audio Video Interleave
Размер файла : 1,40 Гбайт
Продолжительность : 2 ч. 15 м.
Общий поток : 1487 Кбит/сек
Программа кодирования : VirtualDubMod 1.5.10.3 | (build 2550/release)
Библиотека кодирования : VirtualDubMod build 2550/release

Видео
Идентификатор : 0
Формат : MPEG-4 Visual
Профиль формата : Advanced Simple@L5
Параметр BVOP формата : 2
Параметр QPel формата : Нет
Параметр GMC формата : Без точки перехода
Параметр матрицы формата : Default (MPEG)
Идентификатор кодека : XVID
Идентификатор кодека/Подсказка : XviD
Продолжительность : 2 ч. 15 м.
Битрейт : 1089 Кбит/сек
Ширина : 640 пикселей
Высота : 256 пикселей
Соотношение сторон : 2,500
Частота кадров : 23,976 кадра/сек
Цветовое пространство : YUV
Субдискретизация насыщенности : 4:2:0
Битовая глубина : 8 бит
Тип развёртки : Прогрессивная
Метод сжатия : С потерями
Бит/(Пиксели*Кадры) : 0.277
Размер потока : 1,03 Гбайт (73%)
Библиотека кодирования : XviD 1.2.0.dev47 (UTC 2006-11-01)

Аудио #1
Идентификатор : 1
Формат : AC-3
Формат/Информация : Audio Coding 3
Расширение режима : CM (complete main)
Параметр Endianness формата : Big
Идентификатор кодека : 2000
Продолжительность : 2 ч. 15 м.
Вид битрейта : Постоянный
Битрейт : 192 Кбит/сек
Каналы : 2 канала
Расположение каналов : Front: L R
Частота : 48,0 КГц
Битовая глубина : 16 бит
Метод сжатия : С потерями
Размер потока : 186 Мбайт (13%)
Выравнивание : Разделение по промежуткам
Продолжительность промежутка : 42 мс. (1,00 видеокадр)
Время предзагрузки промежутка : 500 мс.

Аудио #2
Идентификатор : 2
Формат : AC-3
Формат/Информация : Audio Coding 3
Расширение режима : CM (complete main)
Параметр Endianness формата : Big
Идентификатор кодека : 2000
Продолжительность : 2 ч. 15 м.
Вид битрейта : Постоянный
Битрейт : 192 Кбит/сек
Каналы : 2 канала
Расположение каналов : Front: L R
Частота : 48,0 КГц
Битовая глубина : 16 бит
Метод сжатия : С потерями
Размер потока : 186 Мбайт (13%)
Выравнивание : Разделение по промежуткам
Продолжительность промежутка : 42 мс. (1,00 видеокадр)
Время предзагрузки промежутка : 500 мс.


Я - Бог / Отверженные скачать торрент


pb.wtf



Скачать Я - Бог через торрент http://pic.kartinco.top/images/8/7bcfy.jpg Скачать фильм Я - Бог через торрент бесплантно в хорошем качестве Описание: Испугавшись страшных предсказаний астрологов, отец привозит маленького сына в Каси и бросает его там. Спустя много лет он находит ... 8.2 10 5
Торрент: Зарегистрирован [2014-11-12 10:42] · скачан: 95 раз
Статус: √ проверено
Размер: 1.4 GB
Как cкачать? Как скачать Я - Бог через торрент | qTorrent


>> Регистрируемся здесь <<






Отзывы и комментарии о схеме читаем и пишем здесь: ---> Отзывы и комментарии о схеме

Новые благодарочки в телеграм довольных пользователей:
скриншот   скриншот   скриншот   скриншот   скриншот
    Дорогой пользователь! Огромная просьба, поблагодарите релизера, оцените раздачу и оставьте свои комментарий, если Вы скачали Я - Бог через торрент бесплатно! Внесите свою лепту в развитие PiratBit!
    Комментировать посты могут только пользователи прошедшие не сложную регистрацию
    Показать сообщения:    

    Я - Бог через торрент
    Скачать бесплатно Я - Бог
    Я - Бог скачать торрент
    Я - Бог смотреть онлайн
    Cкачать фильм Я - Бог бесплатно
    Я - Бог скачать торрент в хорошем качестве
    Я - Бог смотреть онлайн бесплатно в хорошем качестве


    Вы не можете начинать темы
    Вы не можете отвечать на сообщения
    Вы не можете редактировать свои сообщения
    Вы не можете удалять свои сообщения
    Вы не можете голосовать в опросах
    Вы не можете прикреплять файлы к сообщениям
    Вы можете скачивать файлы