MEGA SALE -50% FORZA HORIZON 4 ULTIMATE+ВСЕ DLC+ОНЛАЙН всего за 599р. 299 руб. (супер цена). Внимание количество ограничено!!!

iTunes

1+1

iTunes

мы

iTunes

1

iTunes

Чернобыль

1 сезон

Ральф против интернета

Лицензия

ПШазам

Лицензия

Игра престолов

Лицензия

30
pack

ВАЖНО

!!Акция!!

Alien_RageХит недели

RePack

Resident Evil 21

ИГРА 18+

pack

RePack

Metro:Exodus

!!Акция!!

Alien_Rage

RePack

fifa19

RePack

Assassins Creed: Odyssey

RePack

NEED FOR SPEED™ PAYBACK

3 сезон

9 сезон

Бесстыжие 9 сезон

Все сериалы

все сериалы на PB.wtf

RePack

FAR CRY 5
Ребята, катастрофически не хватает 7730р. для оплаты серверов за ИЮЛЬ (всвязи с блокировками трафик упал в 3 раза), 1-2р., выручайте.
  

Капитан Синдбад / Captain Sindbad (Байрон Хэскин / Byron Haskin) [1963, США, Германия (ФРГ), фэнтези, боевик, приключения, DVDRip,Профессиональный многоголосый pb.wtf

Капитан Синдбад через торрент pb.wtf

Качают: 1 [ 0 KB/s ]
Размер: 1.45 GB | Добавлен: 4 года 9 мес. назад | Торрент скачан:44 раза
Скачать  

12-11-2014 15:48 Капитан Синдбад Скачать торрент  

Капитан Синдбад / Captain Sindbad

Год выпуска: 1963
Страна: США, Германия (ФРГ)
Жанр: фэнтези, боевик, приключения, семейный

Продолжительность: 01:25:14
Перевод: Профессиональный многоголосый
Субтитры: Нет
Режиссер: Байрон Хэскин / Byron Haskin
В ролях: Гай Уильямс (Capt. Sindbad), Хайди Брюль (Princess Jana), Педро Армендарис (El Kerim), Абрахам Соуфер (Galgo), Берни Хэмилтон (Quinius), Хельмут Шнайдер (Bendar), Маргарет Джанен (Lady-in-Waiting), Рольф Ванка (The King), Уолтер Барнс (Rolf), Джеймс Добсон (Iffritch), Морис Марсак (Ahmed), Генри Брэндон (Col. Kabar)
Описание:
Корабль отважного капитана Синдбада-морехода держит путь к славному городу Баристану, в котором встречи с отважным моряком ждёт прекрасная принцесса Джана. Но злой правитель страны Эль Керим не хочет этой встречи, потому что давно выбрал Джану себе в жёны, и намерен поскорее сыграть свадьбу. Эль Керим задумал погубить Синдбада.
От придворного волшебника Галго Джана узнаёт об опасности, грозящей Синдбаду. Она просит Галго превратить её в птицу, чтобы вылететь навстречу моряку и предупредить его об опасности. Галго выполняет её просьбу, но Синдбад не догадывается, зачем к нему прилетела эта красивая птичка.
А в это время Эль Керим направляет в море огромных сильных птиц-воинов, которые сбрасывают на корабль Синдбада громадные камни. Корабль разбит, но морякам удаётся спастись. Рыбаки подбирают отважного Синдбада...
Рейтинг
kinopoisk.ru: 6.250 (80)
imdb.com: 5.50 (549)
MPAA: G - Нет возрастных ограничений
Качество: DVDRip
Формат: AVI
Видео кодек: XviD
Аудио кодек:AC3
Видео: XviD, 720x400 (16:9), 1844 kbps, 23,976 fps, 0,267 bpp
Аудио №1: 2 / английский / AC3 / 2.0 / 48 kHz / 192 kbps / 16 bit Профессиональный многоголосый
Аудио №2: AC3 / 2.0 / 48 kHz / 192 kbps / 16 bit Двухголосый закадровый (НТВ)
Аудио №3: AC3 / 2.0 / 48 kHz / 192 kbps / 16 bit Оригинал

General
Complete name : D:\torrent\3. Капитан Синдбад. 1963.avi
Format : AVI
Format/Info : Audio Video Interleave
File size : 1.45 GiB
Duration : 1h 25mn
Overall bit rate : 2 440 Kbps
Movie name : Синдбад-мореход / Капитан Синдбад / Captain Sindbad (1963)
Copyright : HeDgEhOt®

Video
ID : 0
Format : MPEG-4 Visual
Format profile : Advanced Simple@L5
Format settings, BVOP : 1
Format settings, QPel : No
Format settings, GMC : No warppoints
Format settings, Matrix : Custom
Codec ID : XVID
Codec ID/Hint : XviD
Duration : 1h 25mn
Bit rate : 1 845 Kbps
Width : 720 pixels
Height : 400 pixels
Display aspect ratio : 16:9
Frame rate : 23.976 fps
Color space : YUV
Chroma subsampling : 4:2:0
Bit depth : 8 bits
Scan type : Progressive
Compression mode : Lossy
Bits/(Pixel*Frame) : 0.267
Stream size : 1.10 GiB (76%)
Writing library : XviD 1.2.1 (UTC 2008-12-04)

Audio #1
ID : 1
Format : AC-3
Format/Info : Audio Coding 3
Mode extension : CM (complete main)
Codec ID : 2000
Duration : 1h 25mn
Bit rate mode : Constant
Bit rate : 192 Kbps
Channel(s) : 2 channels
Channel positions : Front: L R
Sampling rate : 48.0 KHz
Bit depth : 16 bits
Compression mode : Lossy
Stream size : 117 MiB (8%)
Alignment : Split accross interleaves
Interleave, duration : 42 ms (1.00 video frame)
Interleave, preload duration : 500 ms
Language : 2 / English

Audio #2
ID : 2
Format : AC-3
Format/Info : Audio Coding 3
Mode extension : CM (complete main)
Codec ID : 2000
Duration : 1h 25mn
Bit rate mode : Constant
Bit rate : 192 Kbps
Channel(s) : 2 channels
Channel positions : Front: L R
Sampling rate : 48.0 KHz
Bit depth : 16 bits
Compression mode : Lossy
Stream size : 117 MiB (8%)
Alignment : Split accross interleaves
Interleave, duration : 42 ms (1.00 video frame)
Interleave, preload duration : 500 ms

Audio #3
ID : 3
Format : AC-3
Format/Info : Audio Coding 3
Mode extension : CM (complete main)
Codec ID : 2000
Duration : 1h 25mn
Bit rate mode : Constant
Bit rate : 192 Kbps
Channel(s) : 2 channels
Channel positions : Front: L R
Sampling rate : 48.0 KHz
Bit depth : 16 bits
Compression mode : Lossy
Stream size : 117 MiB (8%)
Alignment : Split accross interleaves
Interleave, duration : 42 ms (1.00 video frame)
Interleave, preload duration : 500 ms



pb.wtf



Скачать Капитан Синдбад через торрент http://i5.imageban.ru/out/2014/11/12/b76d592bef7c7a193315b90d78c95e87.jpg Скачать фильм Капитан Синдбад через торрент бесплантно в хорошем качестве Описание: Корабль отважного капитана Синдбада-морехода держит путь к славному городу Баристану, в котором встречи с отважным моряком ждёт ... 9.5 10 11
Торрент: Зарегистрирован [2014-11-12 15:48] · скачан: 44 раз
Статус: √ проверено
Размер: 1.45 GB
Как cкачать? Как скачать Капитан Синдбад через торрент | qTorrent



Последний раз редактировалось: jump88 (2016-04-11 06:21), всего редактировалось 1 раз


>> Регистрируемся здесь <<






Отзывы и комментарии о схеме читаем и пишем здесь: ---> Отзывы и комментарии о схеме

Новые благодарочки в телеграм довольных пользователей:
скриншот   скриншот   скриншот   скриншот   скриншот

12-11-2014 16:01 Капитан Синдбад Скачать торрент  

Обожаю старые фильмы, как то там всё по другому не то что сейчас =)pb.wtf



12-11-2014 16:20 Капитан Синдбад Скачать торрент  

Супер!Спасибо.А есть вся "сага"о Синдбаде?Помню,кинотеатры чуть ли не штурмом брали,когда эти фильмы крутили. pb.wtf



12-11-2014 16:27 Капитан Синдбад Скачать торрент  

jump88, Если можно покидай фильмов про индейцев, с дедом посидим посмотримpb.wtf



12-11-2014 16:39 Капитан Синдбад Скачать торрент  

БАНДИТ писал(а):

jump88, Если можно покидай фильмов про индейцев, с дедом посидим посмотрим

О-с Гойко Митичем,ГДР-вские?Присоединяюсь!pb.wtf



12-11-2014 17:56 Капитан Синдбад Скачать торрент  

я прошу прощения за оффтоп, но всем выше написавшим советую посмотреть "300 спартенцев" пиндосовских, 60-х годов, по-моему...pb.wtf



12-11-2014 18:28 Капитан Синдбад Скачать торрент  

kalyan82 писал(а):

я прошу прощения за оффтоп, но всем выше написавшим советую посмотреть "300 спартенцев" пиндосовских, 60-х годов, по-моему...

Судя по цифрам в нике-год рождения?У меня-такая же история))))Так что всё было в своё время просмотрено.И "300 спартанцев"и"Клеопатра" и"Спартак" и ещё куча хороших и разных фильмов.В кинотеатрах ещё ТОЙ страны.pb.wtf



12-11-2014 18:38 Капитан Синдбад Скачать торрент  

Stopper68 писал(а):

kalyan82 писал(а):

я прошу прощения за оффтоп, но всем выше написавшим советую посмотреть "300 спартенцев" пиндосовских, 60-х годов, по-моему...

Судя по цифрам в нике-год рождения?У меня-такая же история))))Так что всё было в своё время просмотрено.И "300 спартанцев"и"Клеопатра" и"Спартак" и ещё куча хороших и разных фильмов.В кинотеатрах ещё ТОЙ страны.

Да были времена )))pb.wtf



    Дорогой пользователь! Огромная просьба, поблагодарите релизера, оцените раздачу и оставьте свои комментарий, если Вы скачали Капитан Синдбад через торрент бесплатно! Внесите свою лепту в развитие PiratBit!
    Комментировать посты могут только пользователи прошедшие не сложную регистрацию
    Показать сообщения:    

    Капитан Синдбад через торрент
    Скачать бесплатно Капитан Синдбад
    Капитан Синдбад скачать торрент
    Капитан Синдбад смотреть онлайн
    Cкачать фильм Капитан Синдбад бесплатно
    Капитан Синдбад скачать торрент в хорошем качестве
    Капитан Синдбад смотреть онлайн бесплатно в хорошем качестве


    Вы не можете начинать темы
    Вы не можете отвечать на сообщения
    Вы не можете редактировать свои сообщения
    Вы не можете удалять свои сообщения
    Вы не можете голосовать в опросах
    Вы не можете прикреплять файлы к сообщениям
    Вы можете скачивать файлы