MEGA SALE -50% FORZA HORIZON 4 ULTIMATE+ВСЕ DLC+ОНЛАЙН всего за 599р. 299 руб. (супер цена). Внимание количество ограничено!!!

iTunes

1+1

iTunes

мы

iTunes

1

iTunes

Чернобыль

iTunes

Ральф против интернета

Лицензия

ПШазам

Лицензия

Игра престолов

Лицензия

30
pack

ВАЖНО

!!Акция!!

Alien_RageХит недели

RePack

Resident Evil 21

ИГРА 18+

pack

RePack

Metro:Exodus

!!Акция!!

Alien_Rage

RePack

fifa19

RePack

Assassins Creed: Odyssey

RePack

NEED FOR SPEED™ PAYBACK

3 сезон

9 сезон

Бесстыжие 9 сезон

Все сериалы

все сериалы на PB.wtf

RePack

FAR CRY 5
Ребята, катастрофически не хватает 7730р. для оплаты серверов за ИЮЛЬ (всвязи с блокировками трафик упал в 3 раза), 1-2р., выручайте.
  

Синдбад и калиф Багдада / Simbad e il califfo di Bagdad (Пьетро Франчиши / Pietro Francisci) [1973, Италия, приключения, DVDRip,Профессиональный многоголосый pb.wtf

Синдбад и калиф Багдада через торрент pb.wtf

Размер: 1.23 GB | Добавлен: 4 года 9 мес. назад | Торрент скачан:40 раз
Скачать  

13-11-2014 07:50 Синдбад и калиф Багдада Скачать торрент  

Синдбад и калиф Багдада / Simbad e il califfo di Bagdad

Год выпуска: 1973
Страна: Италия
Жанр: приключения
Продолжительность: 01:23:26
Перевод: Профессиональный многоголосый
Субтитры: Нет
Режиссер: Пьетро Франчиши / Pietro Francisci
В ролях: Роберт Малкольм (Simbad), Соня Уилсон (Sherazade), Луиджи Бонос (Firùz), Лео Валериано (Bamàn), Спартако Конверси, Артуро Доминичи (Visir), Франко Фантазия, Юджин Уолтер (Zenebi), Paul Oxon, Maria Luigia Biscardi, Джанфранко Клеричи, Ева Мария Гэбриел
Описание:
В Багдаде неспокойно. Безумный калиф ради развлечения одну за другой убивает красивейших девушек города. Спасти красавиц Багдада может только чудо... В недобрый час возвращается из дальних странствий Синдбад - мореход.
Преданный и усыпленный, он становится рабом на шхуне калифа. Много волшебных приключений придется пережить Синдбаду, прежде чем погибнут все враги, а любовь прекрасной Шахерезады, принцессы Бахрейна, будет ему наградой.
Рейтинг
kinopoisk.ru: 5.091 (17)
imdb.com: 4.60 (32)
Качество: DVDRip
Формат: AVI
Видео кодек: XviD
Аудио кодек:AC3
Видео: XviD, 688x528 (4:3), 1807 kbps, 25 fps, 0,199 bpp
Аудио №1: AC3 / 2.0 / 48 kHz / 192 kbps / 16 bit Русский
Аудио №2: AC3 / 1 / 48 kHz / 96 kbps / 16 bit Немецкий

General
Complete name : D:\torrent\4. Синдбад и калиф Багдада. 1973.avi
Format : AVI
Format/Info : Audio Video Interleave
File size : 1.23 GiB
Duration : 1h 23mn
Overall bit rate : 2 110 Kbps
Writing application : VirtualDubMod 1.5.10.2 (build 2540/release)
Writing library : VirtualDubMod build 2540/release

Video
ID : 0
Format : MPEG-4 Visual
Format profile : Advanced Simple@L5
Format settings, BVOP : 2
Format settings, QPel : No
Format settings, GMC : No warppoints
Format settings, Matrix : Default (MPEG)
Codec ID : XVID
Codec ID/Hint : XviD
Duration : 1h 23mn
Bit rate : 1 807 Kbps
Width : 688 pixels
Height : 528 pixels
Display aspect ratio : 4:3
Frame rate : 25.000 fps
Color space : YUV
Chroma subsampling : 4:2:0
Bit depth : 8 bits
Scan type : Progressive
Compression mode : Lossy
Bits/(Pixel*Frame) : 0.199
Stream size : 1.05 GiB (86%)
Writing library : XviD 64

Audio #1
ID : 1
Format : AC-3
Format/Info : Audio Coding 3
Mode extension : CM (complete main)
Codec ID : 2000
Duration : 1h 23mn
Bit rate mode : Constant
Bit rate : 192 Kbps
Channel(s) : 2 channels
Channel positions : Front: L R
Sampling rate : 48.0 KHz
Bit depth : 16 bits
Compression mode : Lossy
Stream size : 115 MiB (9%)
Alignment : Split accross interleaves
Interleave, duration : 40 ms (1.00 video frame)
Interleave, preload duration : 500 ms

Audio #2
ID : 2
Format : AC-3
Format/Info : Audio Coding 3
Mode extension : CM (complete main)
Codec ID : 2000
Duration : 1h 23mn
Bit rate mode : Constant
Bit rate : 96.0 Kbps
Channel(s) : 1 channel
Channel positions : Front: C
Sampling rate : 48.0 KHz
Bit depth : 16 bits
Compression mode : Lossy
Stream size : 57.3 MiB (5%)
Alignment : Aligned on interleaves
Interleave, duration : 40 ms (1.00 video frame)
Interleave, preload duration : 512 ms



pb.wtf



Скачать Синдбад и калиф Багдада через торрент http://i5.imageban.ru/out/2014/11/13/165c01919b01080419d9bcda8ca508e9.jpg Скачать фильм Синдбад и калиф Багдада через торрент бесплантно в хорошем качестве Описание: В Багдаде неспокойно. Безумный калиф ради развлечения одну за другой убивает красивейших девушек города. Спасти красавиц Багдада ... 8.7 10 9
Торрент: Зарегистрирован [2014-11-13 07:50] · скачан: 40 раз
Статус: √ проверено
Размер: 1.23 GB
Как cкачать? Как скачать Синдбад и калиф Багдада через торрент | qTorrent


>> Регистрируемся здесь <<






Отзывы и комментарии о схеме читаем и пишем здесь: ---> Отзывы и комментарии о схеме

Новые благодарочки в телеграм довольных пользователей:
скриншот   скриншот   скриншот   скриншот   скриншот
    Дорогой пользователь! Огромная просьба, поблагодарите релизера, оцените раздачу и оставьте свои комментарий, если Вы скачали Синдбад и калиф Багдада через торрент бесплатно! Внесите свою лепту в развитие PiratBit!
    Комментировать посты могут только пользователи прошедшие не сложную регистрацию
    Показать сообщения:    

    Синдбад и калиф Багдада через торрент
    Скачать бесплатно Синдбад и калиф Багдада
    Синдбад и калиф Багдада скачать торрент
    Синдбад и калиф Багдада смотреть онлайн
    Cкачать фильм Синдбад и калиф Багдада бесплатно
    Синдбад и калиф Багдада скачать торрент в хорошем качестве
    Синдбад и калиф Багдада смотреть онлайн бесплатно в хорошем качестве


    Вы не можете начинать темы
    Вы не можете отвечать на сообщения
    Вы не можете редактировать свои сообщения
    Вы не можете удалять свои сообщения
    Вы не можете голосовать в опросах
    Вы не можете прикреплять файлы к сообщениям
    Вы можете скачивать файлы