Наша группа ВК в очередной раз забанена мы уходим в Телеграм, присоединяйтесь!!!

Лицензия

30

iTunes

мы

iTunes

1

1 сезон

Чернобыль

iTunes

1+1

iTunes

Закатать в асфальт

8 сезон

Игра престолов

1 сезон

Ральф против интернета

ИГРА 18+

pack

ВАЖНО

!!Акция!!

Alien_RageХит недели

RePack

Resident Evil 21
pack

RePack

Metro:Exodus

!!Акция!!

Alien_Rage

RePack

fifa19

RePack

Assassins Creed: Odyssey

RePack

NEED FOR SPEED™ PAYBACK

3 сезон

9 сезон

Бесстыжие 9 сезон

Все сериалы

все сериалы на PB.wtf

RePack

FAR CRY 5
Ребята, катастрофически не хватает 2730р. для оплаты серверов за АПРЕЛЬ (всвязи с блокировками трафик упал в 3 раза), 1-2р., выручайте.
  

Ас из асов / Ace of Aces / L'as des as (Жерар Ури / Gerard Oury) [1982, Франция, Германия, комедия, приключения, BDRip] Dub + MVO + Sub Rus, FRE (forced) + Original Fre pb.wtf

Ас из асов через торрент pb.wtf

Размер: 2.87 GB | Добавлен: 4 года 6 мес. назад | Торрент скачан:23 раза
Скачать  

13-11-2014 09:19 Ас из асов Скачать торрент  

Ас из асов / Ace of Aces / L'as des as
Год выпуска: 1982
Страна: Франция, Германия (ФРГ)
Жанр: комедия, приключения
Продолжительность: 01:43:53
Перевод: Профессиональный (дублированный) Киностудия им. М.Горького, Профессиональный (многоголосый закадровый) RUSCICO
Субтитры: RUS (Full), FRE (forced) softsub (SRT)

Режиссер: Жерар Ури / Gérard Oury



В ролях: Жан-Поль Бельмондо / Jean-Paul Belmondo
Мари-Франс Пизье, Рашид Ферраш, Франк Хоффманн, Гюнтер Майснер, Бенно Штерценбах, Ив Пиньо, Морис Озель, Agnia Bogoslava, Петер Бонке

Описание: Джо Кавалье, летчик-ас Первой Мировой войны, бывший боксер и тренер сборной Франции по боксу, отправляется на Олимпиаду 1936 года в Берлин.
Обстоятельства складываются так, что он вынужден взять под свою защиту еврейского мальчика Симона Роземблюма и его многочисленную родню. Также судьба сталкивает его с очаровательной французской журналисткой...

Качество: BDRip
Формат: MKV
Видео кодек: AVC
Аудио кодек: AC3
Видео: 912 x 550 (1.658) 24.000 fps 3018 Kbps
Аудио#1: 192 Kbps 2 channels, 48.0 KHz DUB Киностудия им. М.Горького
Аудио#2: 448 Kbps 6 channels, 48.0 KHz MVO RUSCICO
Аудио#3: 224 Kbps 2 channels, 48.0 KHz Fre Отдельно
Format : Matroska
Format version : Version 4 / Version 2
File size : 2.71 GiB
Duration : 1h 43mn
Overall bit rate : 3 732 Kbps
Encoded date : UTC 2014-11-09 20:29:13
Writing application : mkvmerge v6.7.0 ('Back to the Ground') 32bit built on Jan 8 2014 15:03:17
Writing library : libebml v1.3.0 + libmatroska v1.4.1

Video
ID : 1
Format : AVC
Format/Info : Advanced Video Codec
Format profile : High@L4.1
Format settings, CABAC : Yes
Format settings, ReFrames : 12 frames
Codec ID : V_MPEG4/ISO/AVC
Duration : 1h 43mn
Bit rate : 3 018 Kbps
Width : 912 pixels
Height : 550 pixels
Display aspect ratio : 1.658
Frame rate mode : Constant
Frame rate : 24.000 fps
Color space : YUV
Chroma subsampling : 4:2:0
Bit depth : 8 bits
Scan type : Progressive
Bits/(Pixel*Frame) : 0.251
Stream size : 2.19 GiB (81%)
Title : L'as des as [rutracker.org]
Writing library : x264 core 142 r2453kMod ea0ca51
Encoding settings : cabac=1 / ref=12 / deblock=1:-2:-1 / analyse=0x3:0x133 / me=umh / subme=11 / psy=1 / fade_compensate=0.00 / psy_rd=1.00:0.05 / mixed_ref=1 / me_range=32 / chroma_me=1 / trellis=2 / 8x8dct=1 / cqm=0 / deadzone=21,11 / fast_pskip=0 / chroma_qp_offset=-3 / threads=12 / lookahead_threads=3 / sliced_threads=0 / nr=0 / decimate=1 / interlaced=0 / bluray_compat=0 / constrained_intra=0 / fgo=0 / bframes=12 / b_pyramid=2 / b_adapt=2 / b_bias=0 / direct=1 / weightb=1 / open_gop=0 / weightp=2 / keyint=250 / keyint_min=23 / scenecut=40 / intra_refresh=0 / rc_lookahead=60 / rc=crf / mbtree=0 / crf=19.0000 / qcomp=0.60 / qpmin=0 / qpmax=69 / qpstep=4 / vbv_maxrate=50000 / vbv_bufsize=62500 / crf_max=0.0 / nal_hrd=none / filler=0 / ip_ratio=1.40 / pb_ratio=1.30 / aq=3:0.90
Language : French
Default : Yes
Forced : No

Audio #1
ID : 2
Format : AC-3
Format/Info : Audio Coding 3
Format profile : Dolby Digital
Mode extension : CM (complete main)
Format settings, Endianness : Big
Codec ID : A_AC3
Duration : 1h 43mn
Bit rate mode : Constant
Bit rate : 192 Kbps
Channel(s) : 2 channels
Channel positions : Front: L R
Sampling rate : 48.0 KHz
Bit depth : 16 bits
Compression mode : Lossy
Stream size : 143 MiB (5%)
Title : DUB USSR
Language : Russian
Default : Yes
Forced : No

Audio #2
ID : 3
Format : AC-3
Format/Info : Audio Coding 3
Mode extension : CM (complete main)
Format settings, Endianness : Big
Codec ID : A_AC3
Duration : 1h 43mn
Bit rate mode : Constant
Bit rate : 448 Kbps
Channel(s) : 6 channels
Channel positions : Front: L C R, Side: L R, LFE
Sampling rate : 48.0 KHz
Bit depth : 16 bits
Compression mode : Lossy
Stream size : 333 MiB (12%)
Title : MVO RUSCICO
Language : Russian
Default : No
Forced : No

Text #1
ID : 4
Format : UTF-8
Codec ID : S_TEXT/UTF8
Codec ID/Info : UTF-8 Plain Text
Title : Full
Language : Russian
Default : No
Forced : No

Text #2
ID : 5
Format : UTF-8
Codec ID : S_TEXT/UTF8
Codec ID/Info : UTF-8 Plain Text
Title : Forced
Language : French
Default : No
Forced : No

Menu
00:00:00.000 : en:00:00:00.000
00:09:53.875 : en:00:09:53.875
00:15:01.000 : en:00:15:01.000
00:23:20.166 : en:00:23:20.166
00:28:51.291 : en:00:28:51.291
00:35:58.125 : en:00:35:58.125
00:45:04.250 : en:00:45:04.250
00:54:19.041 : en:00:54:19.041
01:07:08.125 : en:01:07:08.125
01:15:31.125 : en:01:15:31.125
01:25:16.833 : en:01:25:16.833
01:37:09.458 : en:01:37:09.458


Ас из асов скачать торрент


pb.wtf



Скачать Ас из асов через торрент http://pic.kartinco.top/images/8/re4gv.jpg Скачать фильм Ас из асов через торрент бесплантно в хорошем качестве Описание: Джо Кавалье, летчик-ас Первой Мировой войны, бывший боксер и тренер сборной Франции по боксу, отправляется на Олимпиаду 1936 года ... 10 10 6
Info! Золотая раздача, скачанное не засчитывается.
Торрент: Зарегистрирован [2014-11-13 09:19] · скачан: 23 раз
Статус: √ проверено
Размер: 2.87 GB
Как cкачать? Как скачать Ас из асов через торрент | qTorrent


>> Регистрируемся здесь <<






Отзывы и комментарии о схеме читаем и пишем здесь: ---> Отзывы и комментарии о схеме

Новые благодарочки в телеграм довольных пользователей:
скриншот   скриншот   скриншот   скриншот   скриншот
    Дорогой пользователь! Огромная просьба, поблагодарите релизера, оцените раздачу и оставьте свои комментарий, если Вы скачали Ас из асов через торрент бесплатно! Внесите свою лепту в развитие PiratBit!
    Комментировать посты могут только пользователи прошедшие не сложную регистрацию
    Показать сообщения:    

    Ас из асов через торрент
    Скачать бесплатно Ас из асов
    Ас из асов скачать торрент
    Ас из асов смотреть онлайн
    Cкачать фильм Ас из асов бесплатно
    Ас из асов скачать торрент в хорошем качестве
    Ас из асов смотреть онлайн бесплатно в хорошем качестве


    Вы не можете начинать темы
    Вы не можете отвечать на сообщения
    Вы не можете редактировать свои сообщения
    Вы не можете удалять свои сообщения
    Вы не можете голосовать в опросах
    Вы не можете прикреплять файлы к сообщениям
    Вы можете скачивать файлы