MEGA NEWS Получи личный уникальный адрес сайта и защити себя от блокировок. Внимание количество ограничено!!!

iTunes

1+1

iTunes

мы

iTunes

1

iTunes

Чернобыль

iTunes

Ральф против интернета

Лицензия

ПШазам

Лицензия

Игра престолов

Лицензия

30
pack

ВАЖНО

!!Акция!!

Alien_RageХит недели

RePack

Resident Evil 21

ИГРА 18+

pack

RePack

Metro:Exodus

!!Акция!!

Alien_Rage

RePack

fifa19

RePack

Assassins Creed: Odyssey

RePack

NEED FOR SPEED™ PAYBACK

3 сезон

9 сезон

Бесстыжие 9 сезон

Все сериалы

все сериалы на PB.wtf

RePack

FAR CRY 5
Ребята, катастрофически не хватает 1900р. для оплаты серверов за АВГУСТ (всвязи с блокировками трафик упал в 3 раза), 1-2р., выручайте.
  

Неисправимый / L'incorrigible (Филипп де Брока / Philippe de Broca) [1975 г., комедия,WEB-DLRip 720p] MVOх2+ Original + SUB (rus) pb.wtf

Неисправимый через торрент pb.wtf

Размер: 3.28 GB | Добавлен: 4 года 11 мес. назад | Торрент скачан:15 раз
Скачать  

13-11-2014 10:39 Неисправимый Скачать торрент  

Неисправимый / L'incorrigible
Год выпуска: 1975
Страна: Франция
Жанр: комедия
Продолжительность: 01:39:00
Перевод: Профессиональный многоголосый
Субтитры: Русские

Режиссер: Филипп де Брока



В ролях: Жан-Поль Бельмондо, Женевьев Бюжо, Жюльен Гиомар, Шарль Жерар, Даниэль Секкальди, Капюсин, Андреа Ферреоль, Мишель Бон, Альбер Симоно, Паскаль Робертс

Описание: Виктор выходит из тюрьмы, где отсидел три года и сразу же берется за старое. Он продает чужие квартиры, яхты, и даже истребители "Мираж" африканским странам.

Качество: WEB-DLRip 720p
Формат: MPEG-4
Видео кодек: AVC
Аудио кодек: AAC
Видео: 1276x720 at 23.976 fps, ~4000 kbps avg
Аудио#1: Russian: 48 kHz, ААС, 2/0 (L,R), ~160.00 kbps avg | ОРТ|
Аудио#2: Russian: 48 kHz, ААС, 2/0 (L,R), ~160.00 kbps avg |Твистер|
Аудио#3: France: 48 kHz, ААС, 2/0 (L,R), ~160.00 kbps avg
Общее
Полное имя : Z:\Music\iTunes\iTunes Media\Movies\L'incorrigible\L'incorrigible (HD).m4v
Формат : MPEG-4
Идентификатор кодека : M4V
Размер файла : 3,28 Гбайт
Продолжительность : 1 ч. 39 м.
Режим общего битрейта : Переменный
Общий поток : 4722 Кбит/сек
Название фильма : L'incorrigible
Исполнитель : Philippe de Broca
Жанр : Comedy
Дата записи : UTC 1975-10-15 07:00:00
Дата кодирования : UTC 2013-03-12 17:25:50
Дата пометки : UTC 2013-03-12 17:36:02
Правообладатель : © 1975 STUDIOCANAL - Nicolas Lebovici
Обложка : Yes
sonm : L'incorrigible
desc : Виктор выходит из тюрьмы, где отсидел три года и сразу же берется за старое. Он продает чужие квартиры, яхты, и даже истребители «Мираж» африканским странам.
ldes : Виктор выходит из тюрьмы, где отсидел три года и сразу же берется за старое. Он продает чужие квартиры, яхты, и даже истребители «Мираж» африканским странам.
hdvd : 1
stik : 9
rtng : 0
cnID : 413788148
xid : Apple:vendor_id:1975-54334
iTunEXTC : fr-movie|Tout Public|100|
iTunMOVI : <?xml version="1.0" encoding="UTF-8"?> / <!DOCTYPE plist PUBLIC "-//Apple//DTD PLIST 1.0//EN" "http://www.apple.com/DTDs/PropertyList-1.0.dtd"> / <plist version="1.0"> / <dict> / <key>cast</key> / <array> / <dict> / <key>name</key> / <string>Жан-Поль Бельмондо</string> / </dict> / <dict> / <key>name</key> / <string>Женевьев Бюжо</string> / </dict> / <dict> / <key>name</key> / <string>Жюльен Гиомар</string> / </dict> / <dict> / <key>name</key> / <string>Шарль Жерар</string> / </dict> / <dict> / <key>name</key> / <string>Даниэль Секкальди</string> / </dict> / <dict> / <key>name</key> / <string>Капюсин</string> / </dict> / <dict> / <key>name</key> / <string>Андреа Ферреоль</string> / </dict> / <dict> / <key>name</key> / <string>Мишель Бон</string> / </dict> / <dict> / <key>name</key> / <string>Альбер Симоно</string> / </dict> / <dict> / <key>name</key> / <string>Паскаль Робер</string> / </dict> / </array> / <key>directors</key> / <array> / <dict> / <key>name</key> / <string>Филипп де Брока</string> / </dict> / </array> / <key>producers</key> / <array> / <dict> / <key>name</key> / <string>Жорж Дансижер</string> / </dict> / <dict> / <key>name</key> / <string>Александр Мнушкин</string> / </dict> / <dict> / <key>name</key> / <string>Роберт Амон</string> / </dict> / </array> / <key>screenwriters</key> / <array> / <dict> / <key>name</key> / <string>Мишель Одиар</string> / </dict> / <dict> / <key>name</key> / <string>Филипп де Брока</string> / </dict> / <dict> / <key>name</key> / <string>Алекс Вару</string> / </dict> / </array> / <key>studio</key> / <string>STUDIOCANAL</string> / </dict> / </plist>

Видео #1
Идентификатор : 1
Формат : AVC
Формат/Информация : Advanced Video Codec
Профиль формата : High@L3.1
Параметр CABAC формата : Нет
Параметр ReFrames формата : 2 кадра
Идентификатор кодека : avc1
Идентификатор кодека/Информация : Advanced Video Coding
Продолжительность : 1 ч. 39 м.
Вид битрейта : Переменный
Битрейт : 4289 Кбит/сек
Ширина : 1208 пикселей
Высота : 720 пикселей
Соотношение сторон : 1,678
Режим частоты кадров : Переменный
Частота кадров : 24,000 кадра/сек
Минимальная частота кадров : 23,810 кадра/сек
Максимальная частота кадров : 24,390 кадра/сек
Цветовое пространство : YUV
Субдискретизация насыщенности : 4:2:0
Битовая глубина : 8 бит
Тип развёртки : Прогрессивная
Бит/(Пиксели*Кадры) : 0.205
Размер потока : 2,98 Гбайт (91%)
Язык : French
Дата кодирования : UTC 2013-03-12 17:25:50
Дата пометки : UTC 2013-03-12 17:33:03
Основные цвета : BT.709
Характеристики трансфера : BT.709
Коэффициенты матрицы : BT.709

Видео #2
Идентификатор : 7
Формат : JPEG
Идентификатор кодека : jpeg
Продолжительность : 1 ч. 39 м.
Вид битрейта : Переменный
Битрейт : 834 бит/сек
Ширина : 640 пикселей
Высота : 381 пикселей
Соотношение сторон : 1,680
Режим частоты кадров : Переменный
Частота кадров : 0,002 кадр/сек
Минимальная частота кадров : 0,001 кадр/сек
Максимальная частота кадров : 0,012 кадр/сек
Цветовое пространство : YUV
Субдискретизация насыщенности : 4:2:0
Битовая глубина : 8 бит
Метод сжатия : С потерями
Бит/(Пиксели*Кадры) : 1.710
Размер потока : 560 Кбайт (0%)
Язык : French
Дата кодирования : UTC 2013-03-12 17:33:54
Дата пометки : UTC 2013-03-12 17:33:55

Аудио #1
Идентификатор : 2
Формат : AAC
Формат/Информация : Advanced Audio Codec
Профиль формата : LC
Идентификатор кодека : 40
Продолжительность : 1 ч. 39 м.
Вид битрейта : Переменный
Битрейт : 136 Кбит/сек
Максимальный битрейт : 151 Кбит/сек
Каналы : 2 канала
Расположение каналов : Front: L R
Частота : 48,0 КГц
Метод сжатия : С потерями
Задержка видео : 42 мс.
Размер потока : 96,4 Мбайт (3%)
Язык : Russian
Дата кодирования : UTC 2013-03-12 17:25:50
Дата пометки : UTC 2013-03-12 17:26:12

Аудио #2
Идентификатор : 3
Формат : AAC
Формат/Информация : Advanced Audio Codec
Профиль формата : LC
Идентификатор кодека : 40
Продолжительность : 1 ч. 39 м.
Вид битрейта : Переменный
Битрейт : 164 Кбит/сек
Максимальный битрейт : 217 Кбит/сек
Каналы : 2 канала
Расположение каналов : Front: L R
Частота : 48,0 КГц
Метод сжатия : С потерями
Задержка видео : 42 мс.
Размер потока : 117 Мбайт (3%)
Язык : Russian
Дата кодирования : UTC 2013-03-12 17:25:50
Дата пометки : UTC 2013-03-12 17:33:36

Аудио #3
Идентификатор : 4
Формат : AAC
Формат/Информация : Advanced Audio Codec
Профиль формата : LC
Идентификатор кодека : 40
Продолжительность : 1 ч. 39 м.
Вид битрейта : Переменный
Битрейт : 120 Кбит/сек
Максимальный битрейт : 133 Кбит/сек
Каналы : 2 канала
Расположение каналов : Front: L R
Частота : 48,0 КГц
Метод сжатия : С потерями
Задержка видео : 42 мс.
Размер потока : 85,5 Мбайт (3%)
Язык : French
Дата кодирования : UTC 2013-03-12 17:25:50
Дата пометки : UTC 2013-03-12 17:33:03

Текст #1
Идентификатор : 5
Формат : Timed text
Режим смешивания : sbtl
Идентификатор кодека : tx3g
Продолжительность : 1 ч. 37 м.
Вид битрейта : Переменный
Битрейт : 117 бит/сек
Задержка видео : 42 мс.
Размер потока : 83,6 Кбайт (0%)
Язык : Russian
Дата кодирования : UTC 2013-03-12 17:25:50
Дата пометки : UTC 2013-03-12 17:33:36

Текст #2
Идентификатор : 6
Формат : Apple text
Идентификатор кодека : text
Продолжительность : 1 ч. 39 м.
Вид битрейта : Переменный
Битрейт : 0 бит/сек
Задержка видео : 42 мс.
Размер потока : 266 байт (0%)
Язык : English
Дата кодирования : UTC 2013-03-12 17:33:36
Дата пометки : UTC 2013-03-12 17:33:36

Меню
00:00:00.000 : Chapitre 1
00:10:37.000 : Chapitre 2
00:19:33.000 : Chapitre 3
00:30:03.000 : Chapitre 4
00:38:59.000 : Chapitre 5
00:52:15.000 : Chapitre 6
01:00:27.000 : Chapitre 7
01:10:47.000 : Chapitre 8
01:20:40.000 : Chapitre 9
01:30:36.000 : Chapitre 10
01:37:53.000 : Chapitre 11


Неисправимый скачать торрент


pb.wtf



Скачать Неисправимый через торрент http://pic.kartinco.top/images/8/m6lxz.jpg Скачать фильм Неисправимый через торрент бесплантно в хорошем качестве Описание: Виктор выходит из тюрьмы, где отсидел три года и сразу же берется за старое. Он продает чужие квартиры, яхты, и даже истребители ... 10 10 4
Info! Золотая раздача, скачанное не засчитывается.
Торрент: Зарегистрирован [2014-11-13 10:39] · скачан: 15 раз
Статус: √ проверено
Размер: 3.28 GB
Как cкачать? Как скачать Неисправимый через торрент | qTorrent


>> Регистрируемся здесь <<






Отзывы и комментарии о схеме читаем и пишем здесь: ---> Отзывы и комментарии о схеме

Новые благодарочки в телеграм довольных пользователей:
скриншот   скриншот   скриншот   скриншот   скриншот
    Дорогой пользователь! Огромная просьба, поблагодарите релизера, оцените раздачу и оставьте свои комментарий, если Вы скачали Неисправимый через торрент бесплатно! Внесите свою лепту в развитие PiratBit!
    Комментировать посты могут только пользователи прошедшие не сложную регистрацию
    Показать сообщения:    

    Неисправимый через торрент
    Скачать бесплатно Неисправимый
    Неисправимый скачать торрент
    Неисправимый смотреть онлайн
    Cкачать фильм Неисправимый бесплатно
    Неисправимый скачать торрент в хорошем качестве
    Неисправимый смотреть онлайн бесплатно в хорошем качестве


    Вы не можете начинать темы
    Вы не можете отвечать на сообщения
    Вы не можете редактировать свои сообщения
    Вы не можете удалять свои сообщения
    Вы не можете голосовать в опросах
    Вы не можете прикреплять файлы к сообщениям
    Вы можете скачивать файлы