Ссылка на приватное зеркало нашего сайта всего за 1$. Внимание количество ограничено!!!

2 сезон

iTunes

1 сезон

1

2 сезон

2 сезон

iTunes

1 сезон

RePack

30

Новинка

ВАЖНО

ИГРА 18+

pack

RePack

MK11
pack

Забери бонус

RePack

jed

!!Акция!!

Alien_Rage

RePack

fifa19

RePack

Assassins Creed: Odyssey

RePack

NEED FOR SPEED™ PAYBACK

4 сезон

9 сезон

Бесстыжие 9 сезон

Все сериалы

все сериалы на PB.wtf

RePack

FAR CRY 5
  

Чудовище / L'Animal (Клод Зиди / Claude Zidi) [1977, Франция, Комедия, HDTVRip 720p] Dub + MVOх2 + DVOх2 + Original Fre pb.wtf

Чудовище через торрент pb.wtf

Размер: 4.86 GB | Добавлен: 6 лет назад | Торрент скачан:58 раз
Скачать  

13-11-2014 11:14 Чудовище Скачать торрент  

Чудовище / L'Animal
Год выпуска: 1977
Страна: Франция
Жанр: комедия
Продолжительность: 01:36:28
Перевод 1: Профессиональный (дублированный) - СССР к/с им. Горького
Перевод 2: Профессиональный (многоголосый закадровый) - Neoclassica
Перевод 3: Профессиональный (многоголосый закадровый) - НТВ
Перевод 4: Профессиональный (двухголосый закадровый) - Рен ТВ
Перевод 5: Профессиональный (двухголосый закадровый) - Twister
Субтитры: русские

Режиссер: Клод Зиди / Claude Zidi



В ролях: Жан-Поль Бельмондо, Рэкел Уэлч, Марио Давид, Раймон Жером, Шарль Жерар, Жюльен Гийомар, Анри Женес, Альдо Маччоне, Дани Саваль

Описание: Каскадёр Мишель Гоше не очень-то преуспел на профессиональном поприще, поэтому хватается за любую работу, чтобы свести концы с концами. Даже собственная свадьба с каскадёршей Джейн Гарднер, которая уже давно ждала этого дня, не является для него уважительной причиной для отказа от внезапно подвернувшейся работы, и по пути в ЗАГС они заезжают на съёмочную площадку, где должны исполнить каскадёрский трюк. Джейн, не ожидавшая, что ей придётся работать в такой торжественный день, устраивает Мишелю скандал, в результате чего он теряет управление автомобилем, и оба оказываются на больничной койке со множественными травмами. Это становится для Джейн последней каплей, и она после выздоровления оставляет и свою опасную работу и своего жениха. Но, потерпев неудачу на личном фронте, Мишель получает очень выгодное предложение от итальянского режиссёра , приехавшего во Францию для съёмок своего нового боевика. Главную роль в фильме исполняет всемирно известный актёр, любимец миллионов женщин Бруно Феррари , как две капли воды похожий на Мишеля, которому предлагают дублировать его в опасных сценах...

Доп. информация:
Премия "Золотой экран", Германия (1978, Golden Screen, Germany)
Номинант "Лучшая музыка для фильма", Владимир Косма (1978, César Awards, France)
Русские аудиодорожки предоставлены и синхронизированы Master Bum
Субтитры предоставлены ПроходимеZ.
Сборка bm_s.

Качество: HDTVRip 720p
Формат: MKV
Видео кодек: AVC
Аудио кодек: AC3
Видео: 1276х538 2.40:1 25 fps, x264 7004 Kbps
Аудио#1: Русский 2.0, 48 kHz, 192 kbps 16 bit ( СССР к/с им. Горького)
Аудио#2: Русский 2.0, 48 kHz, 192 kbps 16 bit (Neoclassica)
Аудио#3: Русский 2.0, 48 kHz, 192 kbps 16 bit (НТВ)
Аудио#4: Русский 2.0, 48 kHz, 192 kbps 16 bit (Рен ТВ)
Аудио #5: Русский 2.0, 48 kHz, 192 kbps 16 bit (Twister)
Аудио #6: Francais 2.0, 48 kHz, 224 kbps 16 bit
Общее
Уникальный идентификатор : 183053898348273623916936442025185692038 (0x89B6E5FF48B8A31C931281D5C220C986)
Полное имя : E:\Чудовище L'Animal\L'animal.1977.720p.HDTV.x264.mkv
Формат : Matroska
Версия формата : Version 2
Размер файла : 4,86 Гбайт
Продолжительность : 1 ч. 36 м.
Общий поток : 7219 Кбит/сек
Название фильма : L'animal (1977)
Дата кодирования : UTC 2012-10-02 15:54:57
Программа кодирования : mkvmerge v5.7.0 ('The Whirlwind') built on Jul 29 2012 15:12:35
Библиотека кодирования : libebml v1.2.3 + libmatroska v1.3.0

Видео
Идентификатор : 1
Формат : AVC
Формат/Информация : Advanced Video Codec
Профиль формата : High@L4.1
Параметр CABAC формата : Да
Параметр ReFrames формата : 11 кадров
Идентификатор кодека : V_MPEG4/ISO/AVC
Продолжительность : 1 ч. 36 м.
Битрейт : 6100 Кбит/сек
Ширина : 1276 пикселей
Высота : 538 пикселей
Соотношение сторон : 2,40:1
Режим частоты кадров : Постоянный
Частота кадров : 25,000 кадров/сек
Цветовое пространство : YUV
Субдискретизация насыщенности : 4:2:0
Битовая глубина : 8 бит
Тип развёртки : Прогрессивная
Бит/(Пиксели*Кадры) : 0.355
Размер потока : 3,97 Гбайт (82%)
Библиотека кодирования : x264 core 119 r2106 07efeb4
Настройки программы : cabac=1 / ref=11 / deblock=1:-3:-3 / analyse=0x3:0x133 / me=umh / subme=10 / psy=1 / psy_rd=1.15:0.15 / mixed_ref=1 / me_range=32 / chroma_me=1 / trellis=2 / 8x8dct=1 / cqm=0 / deadzone=21,11 / fast_pskip=0 / chroma_qp_offset=-3 / threads=12 / sliced_threads=0 / nr=0 / decimate=0 / interlaced=0 / bluray_compat=0 / constrained_intra=0 / bframes=6 / b_pyramid=2 / b_adapt=2 / b_bias=0 / direct=3 / weightb=1 / open_gop=0 / weightp=2 / keyint=250 / keyint_min=25 / scenecut=40 / intra_refresh=0 / rc_lookahead=60 / rc=2pass / mbtree=1 / bitrate=6100 / ratetol=1.0 / qcomp=0.75 / qpmin=0 / qpmax=69 / qpstep=4 / cplxblur=20.0 / qblur=0.5 / vbv_maxrate=50000 / vbv_bufsize=62500 / nal_hrd=none / ip_ratio=1.40 / aq=1:0.80
Язык : French
Default : Да
Forced : Нет

Аудио #1
Идентификатор : 2
Формат : AC-3
Формат/Информация : Audio Coding 3
Расширение режима : CM (complete main)
Параметр Endianness формата : Big
Идентификатор кодека : A_AC3
Продолжительность : 1 ч. 36 м.
Вид битрейта : Постоянный
Битрейт : 192 Кбит/сек
Каналы : 2 канала
Расположение каналов : Front: L R
Частота : 48,0 КГц
Битовая глубина : 16 бит
Метод сжатия : С потерями
Размер потока : 132 Мбайт (3%)
Заголовок : DUB_RUS
Язык : Russian
Default : Да
Forced : Да

Аудио #2
Идентификатор : 3
Формат : AC-3
Формат/Информация : Audio Coding 3
Расширение режима : CM (complete main)
Параметр Endianness формата : Big
Идентификатор кодека : A_AC3
Продолжительность : 1 ч. 36 м.
Вид битрейта : Постоянный
Битрейт : 192 Кбит/сек
Каналы : 2 канала
Расположение каналов : Front: L R
Частота : 48,0 КГц
Битовая глубина : 16 бит
Метод сжатия : С потерями
Размер потока : 132 Мбайт (3%)
Заголовок : NEOCLASSICA
Язык : Russian
Default : Нет
Forced : Нет

Аудио #3
Идентификатор : 4
Формат : AC-3
Формат/Информация : Audio Coding 3
Расширение режима : CM (complete main)
Параметр Endianness формата : Big
Идентификатор кодека : A_AC3
Продолжительность : 1 ч. 36 м.
Вид битрейта : Постоянный
Битрейт : 192 Кбит/сек
Каналы : 2 канала
Расположение каналов : Front: L R
Частота : 48,0 КГц
Битовая глубина : 16 бит
Метод сжатия : С потерями
Размер потока : 132 Мбайт (3%)
Заголовок : NTV
Язык : Russian
Default : Нет
Forced : Нет

Аудио #4
Идентификатор : 5
Формат : AC-3
Формат/Информация : Audio Coding 3
Расширение режима : CM (complete main)
Параметр Endianness формата : Big
Идентификатор кодека : A_AC3
Продолжительность : 1 ч. 36 м.
Вид битрейта : Постоянный
Битрейт : 192 Кбит/сек
Каналы : 2 канала
Расположение каналов : Front: L R
Частота : 48,0 КГц
Битовая глубина : 16 бит
Метод сжатия : С потерями
Размер потока : 132 Мбайт (3%)
Заголовок : REN_TV
Язык : Russian
Default : Нет
Forced : Нет

Аудио #5
Идентификатор : 6
Формат : AC-3
Формат/Информация : Audio Coding 3
Расширение режима : CM (complete main)
Параметр Endianness формата : Big
Идентификатор кодека : A_AC3
Продолжительность : 1 ч. 36 м.
Вид битрейта : Постоянный
Битрейт : 192 Кбит/сек
Каналы : 2 канала
Расположение каналов : Front: L R
Частота : 48,0 КГц
Битовая глубина : 16 бит
Метод сжатия : С потерями
Размер потока : 132 Мбайт (3%)
Заголовок : TWISTER
Язык : Russian
Default : Нет
Forced : Нет

Аудио #6
Идентификатор : 7
Формат : AC-3
Формат/Информация : Audio Coding 3
Расширение режима : CM (complete main)
Параметр Endianness формата : Big
Идентификатор кодека : A_AC3
Продолжительность : 1 ч. 36 м.
Вид битрейта : Постоянный
Битрейт : 224 Кбит/сек
Каналы : 2 канала
Расположение каналов : Front: L R
Частота : 48,0 КГц
Битовая глубина : 16 бит
Метод сжатия : С потерями
Размер потока : 155 Мбайт (3%)
Заголовок : ORIGINAL
Язык : French
Default : Нет
Forced : Нет

Текст
Идентификатор : 8
Формат : UTF-8
Идентификатор кодека : S_TEXT/UTF8
Идентификатор кодека/Информация : UTF-8 Plain Text
Язык : Russian
Default : Нет
Forced : Нет


Чудовище скачать торрент


pb.wtf



Скачать Чудовище через торрент http://pic.kartinco.top/images/8/5n5ad.jpg Скачать фильм Чудовище через торрент бесплантно в хорошем качестве Описание: Каскадёр Мишель Гоше не очень-то преуспел на профессиональном поприще, поэтому хватается за любую работу, чтобы свести концы с ... 9.6 10 9
Info! Золотая раздача, скачанное не засчитывается.
Торрент: Зарегистрирован [2014-11-13 11:14] · скачан: 58 раз
Статус: √ проверено
Размер: 4.86 GB
Как cкачать? Как скачать Чудовище через торрент | qTorrent

28-11-2019 20:33  

Отключить всю рекламу на сайте

    Дорогой пользователь! Огромная просьба, поблагодарите релизера, оцените раздачу и оставьте свои комментарий, если Вы скачали Чудовище через торрент бесплатно! Внесите свою лепту в развитие PiratBit!
    Комментировать посты могут только пользователи прошедшие не сложную регистрацию
    Показать сообщения:    

    Чудовище через торрент
    Скачать бесплатно Чудовище
    Чудовище скачать торрент
    Чудовище смотреть онлайн
    Cкачать фильм Чудовище бесплатно
    Чудовище скачать торрент в хорошем качестве
    Чудовище смотреть онлайн бесплатно в хорошем качестве


    Вы не можете начинать темы
    Вы не можете отвечать на сообщения
    Вы не можете редактировать свои сообщения
    Вы не можете удалять свои сообщения
    Вы не можете голосовать в опросах
    Вы не можете прикреплять файлы к сообщениям
    Вы можете скачивать файлы