Мега распродажа FORZA HORIZON 4 ULTIMATE+ВСЕ DLC+ОНЛАЙН всего за 499р. 349 руб. (супер цена). Внимание количество ограничено!!!

iTunes

1+1

iTunes

мы

iTunes

1

1 сезон

Чернобыль

1 сезон

Ральф против интернета

Лицензия

ПШазам

8 сезон

Игра престолов

Лицензия

30
pack

ВАЖНО

!!Акция!!

Alien_RageХит недели

RePack

Resident Evil 21

ИГРА 18+

pack

RePack

Metro:Exodus

!!Акция!!

Alien_Rage

RePack

fifa19

RePack

Assassins Creed: Odyssey

RePack

NEED FOR SPEED™ PAYBACK

3 сезон

9 сезон

Бесстыжие 9 сезон

Все сериалы

все сериалы на PB.wtf

RePack

FAR CRY 5
Ребята, катастрофически не хватает 2730р. для оплаты серверов за ИЮНЬ (всвязи с блокировками трафик упал в 3 раза), 1-2р., выручайте.
  

Одиночка / Le Solitaire / The Loner (Жак Дерэй / Jacques Deray) [1987, Франция, боевик, криминал, драма, триллер DVDRip] MVO pb.wtf

Одиночка через торрент pb.wtf

Размер: 1.46 GB | Добавлен: 4 года 8 мес. назад | Торрент скачан:51 раз
Скачать  

13-11-2014 12:33 Одиночка Скачать торрент  

Одиночка / Le Solitaire
Год выпуска: 1987
Страна: Франция
Жанр: боевик, криминал, драма, триллер
Продолжительность: 01:31:52
Перевод: Профессиональный многоголосый

Режиссер: Жак Дерэй / Jacques Deray



В ролях: Жан-Поль Бельмондо,Жан-Пьер Мало, Мишель Бон, Пьер Вернье, Франсуа Дюнойе, Франк Айя, Лоран Жандрон, Жан-Клод Де Горос, Ги Паннекин, Патриция Мальвуазе

Описание: До каких границ может дойти служитель закона в борьбе с преступниками, которые границ не знают? Комиссара Стэна называли фашистом с куриными мозгами и стальными мускулами. Но он справедлив и надежен и не остановиться ни перед чем, чтобы отомстить за гибель своего напарника и друга…

Качество: DVDRip
Формат: AVI
Видео кодек: XviD
Аудио кодек: AC3
Видео: 688x368 (1.87:1), 25 fps, 2065 kbps avg, 0.33 bit/pixel
Аудио#1: Dolby Digital, 48 kHz, 192 kbps, 2/0 (L,R) ch
Общее
Полное имя : F:\Одиночка\Odinochka.1987.XviD.DVDRip.MetionInka.avi
Формат : AVI
Формат/Информация : Audio Video Interleave
Размер файла : 1,46 Гбайт
Продолжительность : 1 ч. 31 м.
Общий поток : 2268 Кбит/сек
Название фильма : Odinochka.1987.XviD.DVDRip.MetionInka
Режиссёр : rip MetionInka
Жанр : Action / Crime / Drama / Thriller
Программа кодирования : VirtualDubMod 1.5.10.3 || (build 2550/release)
Формат оригинала/Имя : Le solitaire / 1987
Правообладатель : rutracker.org
Примечание : RusMVO

Видео
Идентификатор : 0
Формат : MPEG-4 Visual
Профиль формата : Advanced Simple@L5
Параметр BVOP формата : 2
Параметр QPel формата : Нет
Параметр GMC формата : Без точки перехода
Параметр матрицы формата : Выборочная
Идентификатор кодека : XVID
Идентификатор кодека/Подсказка : XviD
Продолжительность : 1 ч. 31 м.
Битрейт : 2066 Кбит/сек
Ширина : 688 пикселей
Высота : 368 пикселей
Соотношение сторон : 1,85:1
Частота кадров : 25,000 кадров/сек
Цветовое пространство : YUV
Субдискретизация насыщенности : 4:2:0
Битовая глубина : 8 бит
Тип развёртки : Прогрессивная
Метод сжатия : С потерями
Бит/(Пиксели*Кадры) : 0.326
Размер потока : 1,33 Гбайт (91%)
Библиотека кодирования : XviD 73

Аудио
Идентификатор : 1
Формат : AC-3
Формат/Информация : Audio Coding 3
Расширение режима : CM (complete main)
Параметр Endianness формата : Big
Идентификатор кодека : 2000
Продолжительность : 1 ч. 31 м.
Вид битрейта : Постоянный
Битрейт : 192 Кбит/сек
Каналы : 2 канала
Расположение каналов : Front: L R
Частота : 48,0 КГц
Битовая глубина : 16 бит
Метод сжатия : С потерями
Размер потока : 126 Мбайт (8%)
Выравнивание : Разделение по промежуткам
Продолжительность промежутка : 40 мс. (1,00 видеокадр)
Время предзагрузки промежутка : 500 мс.


Одиночка скачать торрент


pb.wtf



Скачать Одиночка через торрент http://pic.kartinco.top/images/8/t3lh3.jpg Скачать фильм Одиночка через торрент бесплантно в хорошем качестве Описание: До каких границ может дойти служитель закона в борьбе с преступниками, которые границ не знают? Комиссара Стэна называли фашистом ... 10 10 8
Info! Золотая раздача, скачанное не засчитывается.
Торрент: Зарегистрирован [2014-11-13 12:33] · скачан: 51 раз
Статус: √ проверено
Размер: 1.46 GB
Как cкачать? Как скачать Одиночка через торрент | qTorrent


>> Регистрируемся здесь <<






Отзывы и комментарии о схеме читаем и пишем здесь: ---> Отзывы и комментарии о схеме

Новые благодарочки в телеграм довольных пользователей:
скриншот   скриншот   скриншот   скриншот   скриншот
    Дорогой пользователь! Огромная просьба, поблагодарите релизера, оцените раздачу и оставьте свои комментарий, если Вы скачали Одиночка через торрент бесплатно! Внесите свою лепту в развитие PiratBit!
    Комментировать посты могут только пользователи прошедшие не сложную регистрацию
    Показать сообщения:    

    Одиночка через торрент
    Скачать бесплатно Одиночка
    Одиночка скачать торрент
    Одиночка смотреть онлайн
    Cкачать фильм Одиночка бесплатно
    Одиночка скачать торрент в хорошем качестве
    Одиночка смотреть онлайн бесплатно в хорошем качестве


    Вы не можете начинать темы
    Вы не можете отвечать на сообщения
    Вы не можете редактировать свои сообщения
    Вы не можете удалять свои сообщения
    Вы не можете голосовать в опросах
    Вы не можете прикреплять файлы к сообщениям
    Вы можете скачивать файлы