Доктор Стрэндж

Лицензия

Добыча

Дубляж

Дом дракона

1 сезон

Тор

Дубляж

В эфире

Дубляж

Там, где раки поют

MVO

Властелин колец

1 сезон

GLOBAL

pack

Рекомендуем

30

Пиратка

ВАЖНО

ВАЖНО

Ghostwire

Пиратка

jed

RePack

nioh2

RePack

RDR2

RePack

NEED FOR SPEED™ PAYBACK

RePack

скачать торрент

Кинопоиск HD

Острые козырьки 6 сезон

6 сезон

FAR CRY 6

RePack

скачать торрент

Лицензия

скачать торрент

MVO

1

1 сезон

скачать торрент

1 сезон

скачать торрент

Лицензия

  

Большая белая обуза / The Big White (Марк Майлод) [2004, драма, комедия, криминал, BDRip] Дубляж, AVO

Большая белая обуза через торрент pb.wtf

Размер: 4.66 GB | Добавлен: 8 лет назад | Торрент скачан:80 раз
Смотреть онлайн | Скачать   

13-11-2014 12:35 Большая белая обуза Скачать торрент  

Большая белая обуза / The Big White

Год выпуска: 2004
Страна: США, Германия
Жанр: драма, комедия, криминал
Продолжительность: 01:44:45
Перевод: дублированный, авторский
Субтитры: русские, английские

Режиссёр: Марк Майлод

В ролях: Робин Уильямс, Холли Хантер, Джованни Рибизи, Тим Блэйк Нельсон, В. Эрл Браун, Вуди Харрельсон, Элисон Ломан, Билли Мерэсти, Марина Стефенсен Керр, Ральф Дж. Олдермен

Описание: Аляска — край снежных бурь, сурового северного климата и дом Пола Барнса, агента бюро туристических путешествий. В последнее время дела у него идут хуже некуда: деньги закончились, с женой проблемы, а клиенты не торопятся проводить свой отпуск на Аляске, наслаждаясь прелестями северной жизни. Единственная надежда для Пола хоть как-то поправить свои дела — получить страховку в миллион долларов за пропавшего пять лет назад родного брата. Но без доказательств его смерти, то есть трупа, страховая фирма не выплатит Полу ни цента. И вот однажды Полу улыбается удача: он находит на улице замерзшее тело. Но, во-первых, его не так-то просто выдать за своего погибшего брата, а во-вторых, это тело ищет ещё кое-кто.



Качество: BDRip 720p Сравнение с исходником
Формат: MKV
Видео кодек: H.264
Аудио кодек: AC3
Видео: 4704 Кбит/с, 1280x720, 23.976 кадра/с, 0.213 bpp
Аудио 1: русский, AC3, 448 kbps, 6 ch, 48 kHz [дублированный]
Аудио 2: русский, AC3, 448 kbps, 6 ch, 48 kHz [авторский, Антон Карповский]
Аудио 3: английский, AC3, 448 kbps, 6 ch, 48 kHz [оригинал]
Аудио 4: английский, AC3, 192 kbps, 2 ch, 48 kHz [комментарий]

Имеются неименованные главы/чаптеры.

Автор рипа msltel
frame I:1323 Avg QP:15.42 size:104381
frame P:28966 Avg QP:16.17 size: 40810
frame B:120384 Avg QP:18.23 size: 20541

Общее
Уникальный идентификатор : 181364786129819027972010348478762456467 (0x88719655C90C8F9CA6B1668C7E2A1593)
Полное имя : D:\Video\Bolshaja belaja obuza.2005.BDRip.720p.mkv
Формат : Matroska
Версия формата : Version 4 / Version 2
Размер файла : 4,66 Гбайт
Продолжительность : 1 ч. 44 м.
Общий поток : 6367 Кбит/сек
Дата кодирования : UTC 2014-11-13 02:59:13
Программа кодирования : mkvmerge v7.3.0 ('Nouages') 64bit built on Oct 22 2014 18:53:34
Библиотека кодирования : libebml v1.3.0 + libmatroska v1.4.1
DURATION : 01:36:28.569000000
NUMBER_OF_FRAMES : 1175
NUMBER_OF_BYTES : 39461
_STATISTICS_WRITING_APP : mkvmerge v7.3.0 ('Nouages') 64bit built on Oct 22 2014 18:53:34
_STATISTICS_WRITING_DATE_UTC : 2014-11-13 02:59:13
_STATISTICS_TAGS : BPS DURATION NUMBER_OF_FRAMES NUMBER_OF_BYTES

Видео
Идентификатор : 1
Формат : AVC
Формат/Информация : Advanced Video Codec
Профиль формата : [email protected]
Параметр CABAC формата : Да
Параметр ReFrames формата : 9 кадров
Идентификатор кодека : V_MPEG4/ISO/AVC
Продолжительность : 1 ч. 44 м.
Битрейт : 4704 Кбит/сек
Ширина : 1280 пикселей
Высота : 720 пикселей
Соотношение сторон : 16:9
Режим частоты кадров : Постоянный
Частота кадров : 23,976 кадра/сек
Цветовое пространство : YUV
Субдискретизация насыщенности : 4:2:0
Битовая глубина : 8 бит
Тип развёртки : Прогрессивная
Бит/(Пиксели*Кадры) : 0.213
Размер потока : 3,44 Гбайт (74%)
Заголовок : BDRip -- STarankov
Библиотека кодирования : x264 core 142 r2431 ac76440
Настройки программы : cabac=1 / ref=9 / deblock=1:-1:-1 / analyse=0x3:0x113 / me=umh / subme=10 / psy=1 / psy_rd=1.00:0.15 / mixed_ref=1 / me_range=32 / chroma_me=1 / trellis=2 / 8x8dct=1 / cqm=0 / deadzone=21,11 / fast_pskip=1 / chroma_qp_offset=-3 / threads=6 / lookahead_threads=1 / sliced_threads=0 / nr=0 / decimate=1 / interlaced=0 / bluray_compat=0 / constrained_intra=0 / bframes=8 / b_pyramid=2 / b_adapt=2 / b_bias=0 / direct=3 / weightb=1 / open_gop=0 / weightp=2 / keyint=230 / keyint_min=23 / scenecut=40 / intra_refresh=0 / rc_lookahead=40 / rc=crf / mbtree=0 / crf=18.0 / qcomp=0.60 / qpmin=0 / qpmax=69 / qpstep=4 / vbv_maxrate=50000 / vbv_bufsize=62500 / crf_max=0.0 / nal_hrd=none / filler=0 / ip_ratio=1.40 / pb_ratio=1.30 / aq=1:1.00
Язык : English
Default : Да
Forced : Нет
DURATION : 01:44:44.320000000
NUMBER_OF_FRAMES : 150673
NUMBER_OF_BYTES : 3793022695
_STATISTICS_WRITING_APP : mkvmerge v7.3.0 ('Nouages') 64bit built on Oct 22 2014 18:53:34
_STATISTICS_WRITING_DATE_UTC : 2014-11-13 02:59:13
_STATISTICS_TAGS : BPS DURATION NUMBER_OF_FRAMES NUMBER_OF_BYTES

Аудио #1
Идентификатор : 2
Формат : AC-3
Формат/Информация : Audio Coding 3
Расширение режима : CM (complete main)
Параметр Endianness формата : Big
Идентификатор кодека : A_AC3
Продолжительность : 1 ч. 44 м.
Вид битрейта : Постоянный
Битрейт : 448 Кбит/сек
Каналы : 6 каналов
Расположение каналов : Front: L C R, Side: L R, LFE
Частота : 48,0 КГц
Битовая глубина : 16 бит
Метод сжатия : С потерями
Размер потока : 336 Мбайт (7%)
Заголовок : Дубляж
Язык : Russian
Default : Да
Forced : Нет

Аудио #2
Идентификатор : 3
Формат : AC-3
Формат/Информация : Audio Coding 3
Расширение режима : CM (complete main)
Параметр Endianness формата : Big
Идентификатор кодека : A_AC3
Продолжительность : 1 ч. 44 м.
Вид битрейта : Постоянный
Битрейт : 448 Кбит/сек
Каналы : 6 каналов
Расположение каналов : Front: L C R, Side: L R, LFE
Частота : 48,0 КГц
Битовая глубина : 16 бит
Метод сжатия : С потерями
Размер потока : 336 Мбайт (7%)
Заголовок : AVO (Антон Карповский)
Язык : Russian
Default : Нет
Forced : Нет

Аудио #3
Идентификатор : 4
Формат : AC-3
Формат/Информация : Audio Coding 3
Расширение режима : CM (complete main)
Параметр Endianness формата : Big
Идентификатор кодека : A_AC3
Продолжительность : 1 ч. 44 м.
Вид битрейта : Постоянный
Битрейт : 448 Кбит/сек
Каналы : 6 каналов
Расположение каналов : Front: L C R, Side: L R, LFE
Частота : 48,0 КГц
Битовая глубина : 16 бит
Метод сжатия : С потерями
Размер потока : 336 Мбайт (7%)
Заголовок : Original
Язык : English
Default : Нет
Forced : Нет

Аудио #4
Идентификатор : 5
Формат : AC-3
Формат/Информация : Audio Coding 3
Расширение режима : CM (complete main)
Параметр Endianness формата : Big
Идентификатор кодека : A_AC3
Продолжительность : 1 ч. 44 м.
Вид битрейта : Постоянный
Битрейт : 192 Кбит/сек
Каналы : 2 канала
Расположение каналов : Front: L R
Частота : 48,0 КГц
Битовая глубина : 16 бит
Метод сжатия : С потерями
Размер потока : 144 Мбайт (3%)
Заголовок : Commentary
Язык : English
Default : Нет
Forced : Нет

Текст #1
Идентификатор : 6
Формат : UTF-8
Идентификатор кодека : S_TEXT/UTF8
Идентификатор кодека/Информация : UTF-8 Plain Text
Заголовок : русский
Язык : Russian
Default : Нет
Forced : Нет

Текст #2
Идентификатор : 7
Формат : UTF-8
Идентификатор кодека : S_TEXT/UTF8
Идентификатор кодека/Информация : UTF-8 Plain Text
Заголовок : английский
Default : Нет
Forced : Нет

Меню
00:00:00.000 : :Chapter 01
00:07:10.429 : :Chapter 02
00:13:14.793 : :Chapter 03
00:19:38.176 : :Chapter 04
00:24:35.974 : :Chapter 05
00:30:07.305 : :Chapter 06
00:38:23.300 : :Chapter 07
00:42:30.047 : :Chapter 08
00:49:26.964 : :Chapter 09
00:57:40.456 : :Chapter 10
01:06:27.983 : :Chapter 11
01:12:55.871 : :Chapter 12
01:17:43.659 : :Chapter 13
01:26:33.688 : :Chapter 14
01:35:56.250 : :Chapter 15



Скачать Большая белая обуза через торрент http://i65.fastpic.ru/big/2014/1113/a4/f7bb54b2c92d428437f6cc7c56ed41a4.jpg Скачать, смотреть онлайн Большая белая обуза бесплантно в хорошем качестве Описание: Аляска — край снежных бурь, сурового северного климата и дом Пола Барнса, агента бюро туристических путешествий. В последнее ... 10 10 6
Торрент: Зарегистрирован [2014-11-13 12:35] · скачан: 80 раз
Статус: √ проверено
Размер: 4.66 GB
Как cкачать? Как скачать Большая белая обуза через торрент | UTorrent

28-11-2019 20:33  


Отключить вcю реклaмy на сайте, в т.ч. и в плеере онлайн просмотра!

    Дорогой пользователь! Огромная просьба, поблагодарите релизера, оцените раздачу и оставьте свои комментарий, если Вы скачали Большая белая обуза через торрент бесплатно!!
    Комментировать посты могут только пользователи прошедшие не сложную регистрацию
    Показать сообщения:    


    Большая белая обуза через торрент
    Скачать бесплатно Большая белая обуза
    Большая белая обуза скачать торрент
    Большая белая обуза смотреть онлайн
    Cкачать фильм Большая белая обуза бесплатно
    Большая белая обуза скачать торрент в хорошем качестве
    Большая белая обуза смотреть онлайн бесплатно в хорошем качестве
    Вы не можете начинать темы
    Вы не можете отвечать на сообщения
    Вы не можете редактировать свои сообщения
    Вы не можете удалять свои сообщения
    Вы не можете голосовать в опросах
    Вы не можете прикреплять файлы к сообщениям
    Вы можете скачивать файлы
    Большая белая обуза / The Big White [2004, драма, комедия, криминал, BDRip] Дубляж, AVO смотреть онлайн, скачать торрент picoco.icu