Наша группа ВК в очередной раз забанена мы уходим в Телеграм, присоединяйтесь!!!

Лицензия

30

iTunes

мы

iTunes

1

1 сезон

Чернобыль

iTunes

1+1

iTunes

Закатать в асфальт

8 сезон

Игра престолов

1 сезон

Ральф против интернета

ИГРА 18+

pack

ВАЖНО

!!Акция!!

Alien_RageХит недели

RePack

Resident Evil 21
pack

RePack

Metro:Exodus

!!Акция!!

Alien_Rage

RePack

fifa19

RePack

Assassins Creed: Odyssey

RePack

NEED FOR SPEED™ PAYBACK

3 сезон

9 сезон

Бесстыжие 9 сезон

Все сериалы

все сериалы на PB.wtf

RePack

FAR CRY 5
Ребята, катастрофически не хватает 2730р. для оплаты серверов за АПРЕЛЬ (всвязи с блокировками трафик упал в 3 раза), 1-2р., выручайте.
  

Великолепный / Le Magnifique (Филипп де Брока / Philippe de Broca) [1973, Франция, комедия, HDRip] Dub + MVO +Original+ Subs pb.wtf

Великолепный через торрент pb.wtf

Размер: 2.19 GB | Добавлен: 4 года 6 мес. назад | Торрент скачан:50 раз
Скачать  

13-11-2014 16:20 Великолепный Скачать торрент  

Великолепный / Le Magnifique
Год выпуска: 1973
Страна: Франция
Жанр: комедия
Продолжительность: 01:33:57
Перевод 1: Профессиональный (полное дублирование) CCCP
Перевод 2: Профессиональный (многоголосый закадровый)
Субтитры: русские, французские (srt)

Режиссер: Филипп де Брока / Philippe de Broca



В ролях: Жан-Поль Бельмондо, Жаклин Биссет, Витторио Каприоли, Ганс Мейер, Моник Тарбес, Марио Давид, Бруно Гарсен, Раймон Жером, Жан Лефевр, Фабрицио Мореско

Описание: Франсуа Мерлен - писатель криминальных рассказов. С точностью часового механизма он каждый месяц пишет новый роман для своего редактора Шаррона. Каждая история рассказывает об одном и том же герое - Бобе Сен-Клере, влиятельном и лихом секретном агенте. Боб находит выход из любой ситуации. Время от времени ему удается выбраться из самой сложной ловушки. Это супермен, который может очаровать любую женщину. А единственное удовольствие в жизни Франсуа - это его соседка Кристин, которую он иногда случайно видит из окна. С невероятной фантазией он решает отразить свою собственную жизнь в новой работе. Шаррон, его редактор, становится подлым Карлофом, главой секретной службы Албании, Кристин превращается в Татьяну, соблазнительную обольстительницу, которая помогает Бобу Сен-Клеру в его рискованных заданиях.

Качество: HDTV
Формат: MKV
Видео кодек: AVC
Аудио кодек: AC3
Видео: 920x552 (1.67:1), 24 fps,~2876 kbps avg, 0.236 bit/pixel
Аудио#1: Russian 48 KHz, 2 ch, ~192 Kbps DUB
Аудио#2: Russian 48 KHz, 2 ch, ~192 Kbps MVO
Аудио#3: French 48 KHz, HE-AAC, 2 ch, ~70 Kbps
Общее
Уникальный идентификатор : 201920418741108260294895853021611211311 (0x97E87544F8B1C7ADB7423163EF70BA2F)
Полное имя : E:\Великолепный Le Magnifique\Великолепный\Le Magnifique.mkv
Формат : Matroska
Версия формата : Version 2
Размер файла : 2,19 Гбайт
Продолжительность : 1 ч. 33 м.
Общий поток : 3332 Кбит/сек
Дата кодирования : UTC 2013-07-14 05:47:25
Программа кодирования : mkvmerge v4.0.0 ('The Stars were mine') сборка от Jun 6 2010 16:18:42
Библиотека кодирования : libebml v1.0.0 + libmatroska v1.0.0

Видео
Идентификатор : 1
Формат : AVC
Формат/Информация : Advanced Video Codec
Профиль формата : High@L4.1
Параметр CABAC формата : Да
Параметр ReFrames формата : 10 кадров
Идентификатор кодека : V_MPEG4/ISO/AVC
Продолжительность : 1 ч. 33 м.
Номинальный битрейт : 2876 Кбит/сек
Ширина : 920 пикселей
Высота : 552 пикселя
Соотношение сторон : 1,667
Режим частоты кадров : Постоянный
Частота кадров : 24,000 кадра/сек
Цветовое пространство : YUV
Субдискретизация насыщенности : 4:2:0
Битовая глубина : 8 бит
Тип развёртки : Прогрессивная
Бит/(Пиксели*Кадры) : 0.236
Библиотека кодирования : x264 core 133 r2334 a3ac64b
Настройки программы : cabac=1 / ref=10 / deblock=1:-2:-1 / analyse=0x3:0x133 / me=umh / subme=10 / psy=1 / psy_rd=1.00:0.10 / mixed_ref=1 / me_range=24 / chroma_me=1 / trellis=2 / 8x8dct=1 / cqm=0 / deadzone=21,11 / fast_pskip=1 / chroma_qp_offset=-3 / threads=3 / lookahead_threads=1 / sliced_threads=0 / nr=0 / decimate=1 / interlaced=0 / bluray_compat=0 / constrained_intra=0 / bframes=8 / b_pyramid=2 / b_adapt=2 / b_bias=0 / direct=3 / weightb=1 / open_gop=0 / weightp=2 / keyint=240 / keyint_min=24 / scenecut=40 / intra_refresh=0 / rc_lookahead=60 / rc=2pass / mbtree=1 / bitrate=2876 / ratetol=1.0 / qcomp=0.60 / qpmin=10 / qpmax=51 / qpstep=4 / cplxblur=20.0 / qblur=0.5 / vbv_maxrate=50000 / vbv_bufsize=50000 / nal_hrd=none / ip_ratio=1.40 / aq=1:1.00
Default : Нет
Forced : Нет

Аудио #1
Идентификатор : 2
Формат : AC-3
Формат/Информация : Audio Coding 3
Расширение режима : CM (complete main)
Параметр Endianness формата : Big
Идентификатор кодека : A_AC3
Продолжительность : 1 ч. 33 м.
Вид битрейта : Постоянный
Битрейт : 192 Кбит/сек
Каналы : 2 канала
Расположение каналов : Front: L R
Частота : 48,0 КГц
Битовая глубина : 16 бит
Метод сжатия : С потерями
Размер потока : 129 Мбайт (6%)
Заголовок : дубляж
Язык : Russian
Default : Нет
Forced : Нет

Аудио #2
Идентификатор : 3
Формат : AC-3
Формат/Информация : Audio Coding 3
Расширение режима : CM (complete main)
Параметр Endianness формата : Big
Идентификатор кодека : A_AC3
Продолжительность : 1 ч. 33 м.
Вид битрейта : Постоянный
Битрейт : 192 Кбит/сек
Каналы : 2 канала
Расположение каналов : Front: L R
Частота : 48,0 КГц
Битовая глубина : 16 бит
Метод сжатия : С потерями
Размер потока : 129 Мбайт (6%)
Заголовок : многоголосый
Язык : Russian
Default : Нет
Forced : Нет

Аудио #3
Идентификатор : 4
Формат : AAC
Формат/Информация : Advanced Audio Codec
Профиль формата : HE-AAC / LC
Идентификатор кодека : A_AAC
Продолжительность : 1 ч. 33 м.
Каналы : 2 канала
Расположение каналов : Front: L R
Частота : 48,0 КГц / 24,0 КГц
Метод сжатия : С потерями
Заголовок : оригинал
Язык : French
Default : Нет
Forced : Нет

Меню
00:00:00.097 : en:00:00:00.097


Великолепный скачать торрент


pb.wtf



Скачать Великолепный через торрент http://pic.kartinco.top/images/8/rr35w.jpg Скачать фильм Великолепный через торрент бесплантно в хорошем качестве Описание: Франсуа Мерлен - писатель криминальных рассказов. С точностью часового механизма он каждый месяц пишет новый роман для своего ... 10 10 4
Info! Золотая раздача, скачанное не засчитывается.
Торрент: Зарегистрирован [2014-11-13 16:20] · скачан: 50 раз
Статус: √ проверено
Размер: 2.19 GB
Как cкачать? Как скачать Великолепный через торрент | qTorrent


>> Регистрируемся здесь <<






Отзывы и комментарии о схеме читаем и пишем здесь: ---> Отзывы и комментарии о схеме

Новые благодарочки в телеграм довольных пользователей:
скриншот   скриншот   скриншот   скриншот   скриншот
    Дорогой пользователь! Огромная просьба, поблагодарите релизера, оцените раздачу и оставьте свои комментарий, если Вы скачали Великолепный через торрент бесплатно! Внесите свою лепту в развитие PiratBit!
    Комментировать посты могут только пользователи прошедшие не сложную регистрацию
    Показать сообщения:    

    Великолепный через торрент
    Скачать бесплатно Великолепный
    Великолепный скачать торрент
    Великолепный смотреть онлайн
    Cкачать фильм Великолепный бесплатно
    Великолепный скачать торрент в хорошем качестве
    Великолепный смотреть онлайн бесплатно в хорошем качестве


    Вы не можете начинать темы
    Вы не можете отвечать на сообщения
    Вы не можете редактировать свои сообщения
    Вы не можете удалять свои сообщения
    Вы не можете голосовать в опросах
    Вы не можете прикреплять файлы к сообщениям
    Вы можете скачивать файлы