новый адрес пиратбит piratbit
MEGA NEWS Получи личный уникальный адрес сайта и защити себя от блокировок. Внимание количество ограничено!!!

iTunes

1+1

iTunes

мы

iTunes

1

iTunes

Чернобыль

iTunes

Ральф против интернета

Лицензия

ПШазам

Лицензия

Игра престолов

Лицензия

30
pack

ВАЖНО

!!Акция!!

Alien_RageХит недели

RePack

Resident Evil 21

ИГРА 18+

pack

RePack

Metro:Exodus

!!Акция!!

Alien_Rage

RePack

fifa19

RePack

Assassins Creed: Odyssey

RePack

NEED FOR SPEED™ PAYBACK

3 сезон

9 сезон

Бесстыжие 9 сезон

Все сериалы

все сериалы на PB.wtf

RePack

FAR CRY 5
Ребята, катастрофически не хватает 1900р. для оплаты серверов за АВГУСТ (всвязи с блокировками трафик упал в 3 раза), 1-2р., выручайте.
  

Баловень судьбы / Itinerary of a Spoiled Child (Клод Лелюш / Claude Lelouch) [1988, Франция, Германия (ФРГ), Приключения, Комедия, Драма, BDRip] 2хMVO + Dub + Original (Fra) + Sub (Rus, Eng) pb.wtf

Баловень судьбы через торрент pb.wtf

Размер: 2.52 GB | Добавлен: 4 года 11 мес. назад | Торрент скачан:12 раз
Скачать  

14-11-2014 07:11 Баловень судьбы Скачать торрент  

Баловень судьбы / Itinerary of a Spoiled Child
Год выпуска: 1988
Страна: Франция, Германия
Жанр: Приключения, Комедия, Драма
Продолжительность: 02:06:14
Перевод:
Профессиональный (многоголосый закадровый)- R5
Профессиональный (дублированный) - СССР (отдельно)
Профессиональный (многоголосый закадровый)(отдельно)
Субтитры: русские, английские - softsub (SRT) (отдельно)

Режиссер: Клод Лелюш / Claude Lelouch



В ролях: Жан-Поль Бельмондо /Jean-Paul Belmondo/, Ришар Анконина /Richard Anconina/, Лио /Lio/, Беатрис Аженен /Beatrice Agenin/, Мари-Софи Лелуш /Marie-Sophie Lelouch/, Мишель Бон /Michel Beaune/

Описание: Дожив до пятидесяти лет, человек, достигший, казалось бы, всего, о чём можно только мечтать, решает разыграть собственную гибель и исчезнуть. Он покидает всех тех, кого любит, отказавшись от своего прибыльного бизнеса во имя избранной им свободы. Но неожиданная встреча в лесу, где герой решает поселиться, заставляет его изменить планы и возвратиться домой весьма необычным образом...

Качество: BDRip
Формат: AVI
Видео кодек: XviD
Аудио кодек: AC3
Видео: 720x304 (2.37:1), 24 fps, ~1700 kbps avg, 0.32 bit/pixel
Аудио#1: RUS: 48 kHz, Dolby Digital, 3/2 (L,C,R,l,r) LFE ch, ~384.00 kbps avg - MVO - R5
Аудио#2: FRA: 48 kHz, Dolby Digital, 3/2 (L,C,R,l,r) LFE ch, ~384.00 kbps avg - оригинальная дорожка
Аудио#3: RUS: 48 kHz, Dolby Digital, 2/0 (L,R) ch, ~192.00 kbps avg - дубляж СССР отдельно
Аудио#4: RUS: 48 kHz, Dolby Digital, 2/0 (L,R) ch, ~192.00 kbps avg - MVO отдельно
Общее
Полное имя : F:\Баловень судьбы\Baloven.Sudby.1988.DUAL.BDRip.XviD.AC3.-Shevon\Baloven.Sudby.1988.DUAL.BDRip.XviD.AC3.-Shevon.avi
Формат : AVI
Формат/Информация : Audio Video Interleave
Профиль формата : OpenDML
Размер файла : 2,18 Гбайт
Продолжительность : 2 ч. 6 м.
Общий поток : 2475 Кбит/сек
Название фильма : Баловень судьбы / Itinerary of a Spoiled Child / Itine'raire d'un enfant ga^te' (1988)
Режиссёр : Shevon (BDRemux)
Программа кодирования : VirtualDubMod 1.5.10.2 (build 2540/release)

Видео
Идентификатор : 0
Формат : MPEG-4 Visual
Профиль формата : Advanced Simple@L5
Параметр BVOP формата : 1
Параметр QPel формата : Нет
Параметр GMC формата : Без точки перехода
Параметр матрицы формата : Выборочная
Идентификатор кодека : XVID
Идентификатор кодека/Подсказка : XviD
Продолжительность : 2 ч. 6 м.
Битрейт : 1689 Кбит/сек
Ширина : 720 пикселей
Высота : 304 пикселя
Соотношение сторон : 2,35:1
Частота кадров : 24,000 кадра/сек
Цветовое пространство : YUV
Субдискретизация насыщенности : 4:2:0
Битовая глубина : 8 бит
Тип развёртки : Прогрессивная
Метод сжатия : С потерями
Бит/(Пиксели*Кадры) : 0.322
Размер потока : 1,49 Гбайт (68%)
Библиотека кодирования : XviD 65

Аудио #1
Идентификатор : 1
Формат : AC-3
Формат/Информация : Audio Coding 3
Расширение режима : CM (complete main)
Параметр Endianness формата : Big
Идентификатор кодека : 2000
Продолжительность : 2 ч. 6 м.
Вид битрейта : Постоянный
Битрейт : 384 Кбит/сек
Каналы : 6 каналов
Расположение каналов : Front: L C R, Side: L R, LFE
Частота : 48,0 КГц
Битовая глубина : 16 бит
Метод сжатия : С потерями
Размер потока : 347 Мбайт (16%)
Выравнивание : Разделение по промежуткам
Продолжительность промежутка : 42 мс. (1,00 видеокадр)
Время предзагрузки промежутка : 500 мс.

Аудио #2
Идентификатор : 2
Формат : AC-3
Формат/Информация : Audio Coding 3
Расширение режима : CM (complete main)
Параметр Endianness формата : Big
Идентификатор кодека : 2000
Продолжительность : 2 ч. 6 м.
Вид битрейта : Постоянный
Битрейт : 384 Кбит/сек
Каналы : 6 каналов
Расположение каналов : Front: L C R, Side: L R, LFE
Частота : 48,0 КГц
Битовая глубина : 16 бит
Метод сжатия : С потерями
Размер потока : 347 Мбайт (16%)
Выравнивание : Разделение по промежуткам
Продолжительность промежутка : 42 мс. (1,00 видеокадр)
Время предзагрузки промежутка : 500 мс.


Баловень судьбы скачать торрент


pb.wtf



Скачать Баловень судьбы через торрент http://pic.kartinco.top/images/8/p721j.jpg Скачать фильм Баловень судьбы через торрент бесплантно в хорошем качестве Описание: Дожив до пятидесяти лет, человек, достигший, казалось бы, всего, о чём можно только мечтать, решает разыграть собственную гибель ... 8.2 10 5
Info! Золотая раздача, скачанное не засчитывается.
Торрент: Зарегистрирован [2014-11-14 07:11] · скачан: 12 раз
Статус: √ проверено
Размер: 2.52 GB
Как cкачать? Как скачать Баловень судьбы через торрент | qTorrent

% Раздел Тема Автор DL S | L
Фильмы до 2000 г. [ 2.18 GB ] Баловень судьбы / Itinerary of a Spoiled Child / Itinéraire d'un enfant gâté [1988 Германия BDRip от HQ-ViDEO] Ворон Скачать
1 | 0


>> Регистрируемся здесь <<






Отзывы и комментарии о схеме читаем и пишем здесь: ---> Отзывы и комментарии о схеме

Новые благодарочки в телеграм довольных пользователей:
скриншот   скриншот   скриншот   скриншот   скриншот
    Дорогой пользователь! Огромная просьба, поблагодарите релизера, оцените раздачу и оставьте свои комментарий, если Вы скачали Баловень судьбы через торрент бесплатно! Внесите свою лепту в развитие PiratBit!
    Комментировать посты могут только пользователи прошедшие не сложную регистрацию
    Показать сообщения:    

    Баловень судьбы через торрент
    Скачать бесплатно Баловень судьбы
    Баловень судьбы скачать торрент
    Баловень судьбы смотреть онлайн
    Cкачать фильм Баловень судьбы бесплатно
    Баловень судьбы скачать торрент в хорошем качестве
    Баловень судьбы смотреть онлайн бесплатно в хорошем качестве


    Вы не можете начинать темы
    Вы не можете отвечать на сообщения
    Вы не можете редактировать свои сообщения
    Вы не можете удалять свои сообщения
    Вы не можете голосовать в опросах
    Вы не можете прикреплять файлы к сообщениям
    Вы можете скачивать файлы