Наша группа ВК в очередной раз забанена мы уходим в Телеграм, присоединяйтесь!!!

Лицензия

30

iTunes

мы

iTunes

1

1 сезон

Чернобыль

iTunes

1+1

iTunes

Закатать в асфальт

8 сезон

Игра престолов

1 сезон

Ральф против интернета

ИГРА 18+

pack

ВАЖНО

!!Акция!!

Alien_RageХит недели

RePack

Resident Evil 21
pack

RePack

Metro:Exodus

!!Акция!!

Alien_Rage

RePack

fifa19

RePack

Assassins Creed: Odyssey

RePack

NEED FOR SPEED™ PAYBACK

3 сезон

9 сезон

Бесстыжие 9 сезон

Все сериалы

все сериалы на PB.wtf

RePack

FAR CRY 5
Ребята, катастрофически не хватает 2730р. для оплаты серверов за АПРЕЛЬ (всвязи с блокировками трафик упал в 3 раза), 1-2р., выручайте.
  

Золотое путешествие Синдбада / The Golden Voyage of Sinbad (Гордон Хесслер / Gordon Hessler) [1973, США, фэнтези, боевик, приключения, DVDRip,Профессиональный многоголосый pb.wtf

Золотое путешествие Синдбада через торрент pb.wtf

Размер: 1.45 GB | Добавлен: 4 года 6 мес. назад | Торрент скачан:64 раза
Скачать  

14-11-2014 07:40 Золотое путешествие Синдбада Скачать торрент  

Золотое путешествие Синдбада / The Golden Voyage of Sinbad

Год выпуска: 1973
Страна: США
Жанр: фэнтези, боевик, приключения, семейный

Продолжительность: 01:45:00
Перевод: Профессиональный многоголосый
Субтитры: Нет
Режиссер: Гордон Хесслер / Gordon Hessler
В ролях: Джон Филлип Ло (Sinbad), Кэролайн Манро (Margiana), Том Бэйкер (Koura), Дуглас Уилмер (Vizier), Мартин Шоу (Rachid), Грегуар Аслан (Hakim), Курт Кристиан (Haroun), Такис Эммануэль (Achmed), Дэвид Гарфилд (Abdul), Альдо Самбрель (Omar), Роберт Ритти (Haroun / Omar / Koura's Ship Captain, озвучка, в титрах не указан), Роберт Шоу (The Oracle of all knowledge, в титрах не указан)
Описание:
О подвигах знаменитого морехода и искателя приключений Востока Синдбада сложено немало легенд. Перед вами - самая удивительная и захватывающая из них. В ней Синдбад становится обладателем золотой таблички, части магической карты, загадку которой он жаждет разгадать.
На пути к цели герой и его команда встретит множество опасностей: шестирукую живую статую, гигантского грифона, одноглазого кентавра. Жестокие бури, великие чудеса, а также злая воля колдуна Кура, отметят собой странствие морехода. Какая же награда ждет героя в конце его славного, полного великих приключений пути?
Рейтинг
kinopoisk.ru: 7.397 (835)
imdb.com: 6.80 (5267)
MPAA: G - Нет возрастных ограничений
Качество: DVDRip
Формат: AVI
Видео кодек: XviD
Аудио кодек:AC3
Видео: XviD, 720x400 (16:9), 1780 kbps, 23,976 fps, 0,258 bpp
Аудио: AC3 / 2.0 / 48 kHz / 192 kbps / 16 bit

General
Complete name : D:\torrent\5. Золотое путешествие Синдбада. 1974.avi
Format : AVI
Format/Info : Audio Video Interleave
File size : 1.45 GiB
Duration : 1h 45mn
Overall bit rate : 1 982 Kbps
Movie name : Золотое путешествие Синбада / The Golden Voyage Of Sinbad (1974) DVDRip
Director : Flynn82
Genre : фэнтези, боевик, приключения
Writing application : VirtualDubMod 1.5.10.2 (build 2542/release)
Comment : 02.12.2012

Video
ID : 0
Format : MPEG-4 Visual
Format profile : Advanced Simple@L5
Format settings, BVOP : 1
Format settings, QPel : No
Format settings, GMC : No warppoints
Format settings, Matrix : Custom
Codec ID : XVID
Codec ID/Hint : XviD
Duration : 1h 45mn
Bit rate : 1 781 Kbps
Width : 720 pixels
Height : 400 pixels
Display aspect ratio : 16:9
Frame rate : 23.976 fps
Color space : YUV
Chroma subsampling : 4:2:0
Bit depth : 8 bits
Scan type : Progressive
Compression mode : Lossy
Bits/(Pixel*Frame) : 0.258
Stream size : 1.31 GiB (90%)
Writing library : XviD 65

Audio
ID : 1
Format : AC-3
Format/Info : Audio Coding 3
Mode extension : CM (complete main)
Codec ID : 2000
Duration : 1h 45mn
Bit rate mode : Constant
Bit rate : 192 Kbps
Channel(s) : 2 channels
Channel positions : Front: L R
Sampling rate : 48.0 KHz
Bit depth : 16 bits
Compression mode : Lossy
Stream size : 144 MiB (10%)
Alignment : Split accross interleaves
Interleave, duration : 42 ms (1.00 video frame)
Interleave, preload duration : 500 ms



pb.wtf



Скачать Золотое путешествие Синдбада через торрент http://i6.imageban.ru/out/2014/11/14/a8fc7da91ea3fe6169e2f897b53e78d4.jpg Скачать фильм Золотое путешествие Синдбада через торрент бесплантно в хорошем качестве Описание: О подвигах знаменитого морехода и искателя приключений Востока Синдбада сложено немало легенд. Перед вами - самая удивительная и ... 10 10 11
Торрент: Зарегистрирован [2014-11-14 07:40] · скачан: 64 раз
Статус: √ проверено
Размер: 1.45 GB
Как cкачать? Как скачать Золотое путешествие Синдбада через торрент | qTorrent


>> Регистрируемся здесь <<






Отзывы и комментарии о схеме читаем и пишем здесь: ---> Отзывы и комментарии о схеме

Новые благодарочки в телеграм довольных пользователей:
скриншот   скриншот   скриншот   скриншот   скриншот
    Дорогой пользователь! Огромная просьба, поблагодарите релизера, оцените раздачу и оставьте свои комментарий, если Вы скачали Золотое путешествие Синдбада через торрент бесплатно! Внесите свою лепту в развитие PiratBit!
    Комментировать посты могут только пользователи прошедшие не сложную регистрацию
    Показать сообщения:    

    Золотое путешествие Синдбада через торрент
    Скачать бесплатно Золотое путешествие Синдбада
    Золотое путешествие Синдбада скачать торрент
    Золотое путешествие Синдбада смотреть онлайн
    Cкачать фильм Золотое путешествие Синдбада бесплатно
    Золотое путешествие Синдбада скачать торрент в хорошем качестве
    Золотое путешествие Синдбада смотреть онлайн бесплатно в хорошем качестве


    Вы не можете начинать темы
    Вы не можете отвечать на сообщения
    Вы не можете редактировать свои сообщения
    Вы не можете удалять свои сообщения
    Вы не можете голосовать в опросах
    Вы не можете прикреплять файлы к сообщениям
    Вы можете скачивать файлы