MEGA SALE -50% FORZA HORIZON 4 ULTIMATE+ВСЕ DLC+ОНЛАЙН всего за 599р. 299 руб. (супер цена). Внимание количество ограничено!!!

iTunes

1+1

iTunes

мы

iTunes

1

iTunes

Чернобыль

iTunes

Ральф против интернета

Лицензия

ПШазам

Лицензия

Игра престолов

Лицензия

30
pack

ВАЖНО

!!Акция!!

Alien_RageХит недели

RePack

Resident Evil 21

ИГРА 18+

pack

RePack

Metro:Exodus

!!Акция!!

Alien_Rage

RePack

fifa19

RePack

Assassins Creed: Odyssey

RePack

NEED FOR SPEED™ PAYBACK

3 сезон

9 сезон

Бесстыжие 9 сезон

Все сериалы

все сериалы на PB.wtf

RePack

FAR CRY 5
Ребята, катастрофически не хватает 7730р. для оплаты серверов за ИЮЛЬ (всвязи с блокировками трафик упал в 3 раза), 1-2р., выручайте.
  

Синбад и Глаз Тигра / Sinbad and the Eye of the Tiger (Сэм Уонамейкер / Sam Wanamaker) [1977, Великобритания, фэнтези, боевик, приключения, DVDRip,Профессиональный многоголосый pb.wtf

Синбад и Глаз Тигра через торрент pb.wtf

Размер: 1.45 GB | Добавлен: 4 года 9 мес. назад | Торрент скачан:39 раз
Скачать  

14-11-2014 08:16 Синбад и Глаз Тигра Скачать торрент  

Синбад и Глаз Тигра / Sinbad and the Eye of the Tiger

Год выпуска: 1977
Страна: Великобритания
Жанр: фэнтези, боевик, приключения, семейный

Продолжительность: 01:52:59
Перевод: Профессиональный многоголосый
Субтитры: Нет
Режиссер: Сэм Уонамейкер / Sam Wanamaker
В ролях: Патрик Уэйн (Sinbad), Тэрин Пауэр (Dione), Маргарет Уайтинг (Zenobia), Джейн Сеймур (Farah), Патрик Тротон (Melanthius), Курт Кристиан (Rafi), Надим Савалха (Hassan), Дэмиен Томас (Kassim), Бруно Барнаби (Balsora), Бернард Кэй (Zabid), Салами Кокер (Maroof), Дэвид Стерн (Aboo-Seer)
Описание:
Синдбад держит путь в землю Чарок для того, чтобы просить руки принцессы Фары у ее брата принца Кассима. Однако, приплыв туда, он узнает, что волшебница Зенобия наложила на Кассима проклятие, превратив его в бабуина.
Королева Зенобия сделала это, для того, чтобы калифом смог стать ее сын принц Рафи. Синдбад решает восстановить справедливость и вступает в схватку с волшебницей, то и дело принимающей облик дикой тигрицы.
Рейтинг
kinopoisk.ru: 6.863 (433)
imdb.com: 6.30 (4093)
MPAA: G - Нет возрастных ограничений
Качество: DVDRip
Формат: AVI
Видео кодек: XviD
Аудио кодек:AC3
Видео: XviD, 720x400 (16:9), 1640 kbps, 23,976 fps, 0,238 bpp
Аудио: AC3 / 2.0 / 48 kHz / 192 kbps / 16 bit

General
Complete name : D:\torrent\6. Синдбад и Глаз Тигра. 1977.avi
Format : AVI
Format/Info : Audio Video Interleave
File size : 1.45 GiB
Duration : 1h 52mn
Overall bit rate : 1 842 Kbps
Movie name : Синбад и Глаз Тигра / Sinbad and the Eye of the Tiger (1977) DVDRip
Director : Flynn82
Genre : фэнтези, боевик, приключения
Writing application : VirtualDubMod 1.5.10.2 (build 2542/release)
Comment : 06.12.2012

Video
ID : 0
Format : MPEG-4 Visual
Format profile : Advanced Simple@L5
Format settings, BVOP : 1
Format settings, QPel : No
Format settings, GMC : No warppoints
Format settings, Matrix : Custom
Codec ID : XVID
Codec ID/Hint : XviD
Duration : 1h 52mn
Bit rate : 1 641 Kbps
Width : 720 pixels
Height : 400 pixels
Display aspect ratio : 16:9
Frame rate : 23.976 fps
Color space : YUV
Chroma subsampling : 4:2:0
Bit depth : 8 bits
Scan type : Progressive
Compression mode : Lossy
Bits/(Pixel*Frame) : 0.238
Stream size : 1.29 GiB (89%)
Writing library : XviD 65

Audio
ID : 1
Format : AC-3
Format/Info : Audio Coding 3
Mode extension : CM (complete main)
Codec ID : 2000
Duration : 1h 52mn
Bit rate mode : Constant
Bit rate : 192 Kbps
Channel(s) : 2 channels
Channel positions : Front: L R
Sampling rate : 48.0 KHz
Bit depth : 16 bits
Compression mode : Lossy
Stream size : 155 MiB (10%)
Alignment : Split accross interleaves
Interleave, duration : 42 ms (1.00 video frame)
Interleave, preload duration : 500 ms



pb.wtf



Скачать Синбад и Глаз Тигра через торрент http://i4.imageban.ru/out/2014/11/14/c29d61f0f2e48cf7ed77f05addf04fb0.jpg Скачать фильм Синбад и Глаз Тигра через торрент бесплантно в хорошем качестве Описание: Синдбад держит путь в землю Чарок для того, чтобы просить руки принцессы Фары у ее брата принца Кассима. Однако, приплыв туда, он ... 10 10 11
Торрент: Зарегистрирован [2014-11-14 08:16] · скачан: 39 раз
Статус: √ проверено
Размер: 1.45 GB
Как cкачать? Как скачать Синбад и Глаз Тигра через торрент | qTorrent


>> Регистрируемся здесь <<






Отзывы и комментарии о схеме читаем и пишем здесь: ---> Отзывы и комментарии о схеме

Новые благодарочки в телеграм довольных пользователей:
скриншот   скриншот   скриншот   скриншот   скриншот
    Дорогой пользователь! Огромная просьба, поблагодарите релизера, оцените раздачу и оставьте свои комментарий, если Вы скачали Синбад и Глаз Тигра через торрент бесплатно! Внесите свою лепту в развитие PiratBit!
    Комментировать посты могут только пользователи прошедшие не сложную регистрацию
    Показать сообщения:    

    Синбад и Глаз Тигра через торрент
    Скачать бесплатно Синбад и Глаз Тигра
    Синбад и Глаз Тигра скачать торрент
    Синбад и Глаз Тигра смотреть онлайн
    Cкачать фильм Синбад и Глаз Тигра бесплатно
    Синбад и Глаз Тигра скачать торрент в хорошем качестве
    Синбад и Глаз Тигра смотреть онлайн бесплатно в хорошем качестве


    Вы не можете начинать темы
    Вы не можете отвечать на сообщения
    Вы не можете редактировать свои сообщения
    Вы не можете удалять свои сообщения
    Вы не можете голосовать в опросах
    Вы не можете прикреплять файлы к сообщениям
    Вы можете скачивать файлы