Ссылка на приватное зеркало нашего сайта всего за 1$. Внимание количество ограничено!!!

2 сезон

iTunes

1 сезон

1

iTunes

iTunes

iTunes

1 сезон

RePack

30

ИГРА 18+

pack

ВАЖНО

!!Акция!!

Alien_RageХит недели

RePack

MK11
pack

Забери бонус

RePack

jed

!!Акция!!

Alien_Rage

RePack

fifa19

RePack

Assassins Creed: Odyssey

RePack

NEED FOR SPEED™ PAYBACK

4 сезон

9 сезон

Бесстыжие 9 сезон

Все сериалы

все сериалы на PB.wtf

RePack

FAR CRY 5
  

Судная ночь 2 / The Purge: Anarchy (Джеймс ДеМонако / James DeMonaco) [2014, триллер, криминал, боевик, BDRip 1080p, Dub, Лицензия] pb.wtf

Судная ночь 2 через торрент pb.wtf

Размер: 15.52 GB | Добавлен: 5 лет 11 мес. назад | Торрент скачан:146 раз
Скачать  

15-11-2014 20:43 Судная ночь 2 Скачать торрент  

Судная ночь 2 / The Purge: Anarchy
«Добро пожаловать в идеальное будущее, где одну ночь в году все преступления легальны»



Год выпуска: 2014
Страна: США, Франция
Жанр: триллер, криминал, боевик
Продолжительность: 01:43:34
Перевод: Дублированный [Лицензия]
Субтитры: Русские (Форсированные, Полные)



Режиссер:
  • Джеймс ДеМонако / James DeMonaco
В ролях:
  • Фрэнк Грилло, Кармен Эджого, Зак Гилфорд, Киле Санчес, Майкл К. Уильямс, Зои Борд, Жустина Мачадо, Джон Бизли, Джек Конли, Ноэль Гульеми, Кастуло Герра, Эдвин Ходж

Описание: Добро пожаловать в идеальный мир будущего, мир без преступности и войн. И только один раз в году роскошная спокойная жизнь сменяется анархией. Этой ночью дозволено все: во тьме улиц одни жаждут мести, другие ищут развлечений, остальные пытаются дожить до рассвета...



Качество: BDRip 1080p
Формат: MKV
Видео кодек: AVC
Аудио кодек: DTS
Видео: 1920x800 (2.40:1), 23,976 fps, 13607 kbps, 0,369 bpp
Аудио №1: русский, DTS, 48 kHz, 5.1 ch, 768 kbps
Аудио №2: английский, DTS, 48 kHz, 5.1 ch, 1510 kbps


Код:

Общее
Уникальный идентификатор                 : 236599210739856157559230553448764715329 (0xB1FF59B8F0ED19C081FED77A7AD8B141)
Полное имя                               : E:\Судная ночь 2 (2014) BDRip 1080p.mkv
Формат                                   : Matroska
Версия формата                           : Version 4 / Version 2
Размер файла                             : 15,5 Гбайт
Продолжительность                        : 1 ч. 43 м.
Общий поток                              : 21,5 Мбит/сек
Дата кодирования                         : UTC 2014-11-13 08:29:00
Программа кодирования                    : mkvmerge v6.9.1 ('Blue Panther') 64bit built on Apr 18 2014 18:23:38
Библиотека кодирования                   : libebml v1.3.0 + libmatroska v1.4.1
Attachements                             : cover.jpg

Видео
Идентификатор                            : 1
Формат                                   : AVC
Формат/Информация                        : Advanced Video Codec
Профиль формата                          : High@L4.1
Параметр CABAC формата                   : Да
Параметр ReFrames формата                : 5 кадров
Идентификатор кодека                     : V_MPEG4/ISO/AVC
Продолжительность                        : 1 ч. 43 м.
Битрейт                                  : 18,7 Мбит/сек
Ширина                                   : 1920 пикселей
Высота                                   : 800 пикселей
Соотношение сторон                       : 2,40:1
Режим частоты кадров                     : Постоянный
Частота кадров                           : 23,976 кадра/сек
Цветовое пространство                    : YUV
Субдискретизация насыщенности            : 4:2:0
Битовая глубина                          : 8 бит
Тип развёртки                            : Прогрессивная
Бит/(Пиксели*Кадры)                      : 0.509
Размер потока                            : 13,6 Гбайт (87%)
Заголовок                                : VietHD
Библиотека кодирования                   : x264 core 142 r2479kMod dd79a61
Настройки программы                      : cabac=1 / ref=5 / deblock=1:-3:-3 / analyse=0x3:0x133 / me=umh / subme=10 / psy=1 / fade_compensate=0.00 / psy_rd=1.07:0.00 / mixed_ref=1 / me_range=24 / chroma_me=1 / trellis=2 / 8x8dct=1 / cqm=0 / deadzone=21,11 / fast_pskip=0 / chroma_qp_offset=-2 / threads=18 / lookahead_threads=3 / sliced_threads=0 / nr=0 / decimate=0 / interlaced=0 / bluray_compat=0 / constrained_intra=0 / fgo=0 / bframes=9 / b_pyramid=2 / b_adapt=2 / b_bias=0 / direct=3 / weightb=1 / open_gop=0 / weightp=2 / keyint=250 / keyint_min=23 / scenecut=40 / intra_refresh=0 / rc=crf / mbtree=0 / crf=17.6000 / qcomp=0.75 / qpmin=0 / qpmax=69 / qpstep=4 / ip_ratio=1.20 / pb_ratio=1.10 / aq=1:0.73
Язык                                     : English
Default                                  : Да
Forced                                   : Нет

Аудио #1
Идентификатор                            : 2
Формат                                   : DTS
Формат/Информация                        : Digital Theater Systems
Режим                                    : 16
Параметр Endianness формата              : Big
Идентификатор кодека                     : A_DTS
Продолжительность                        : 1 ч. 43 м.
Вид битрейта                             : Постоянный
Битрейт                                  : 768 Кбит/сек
Каналы                                   : 6 каналов
Расположение каналов                     : Front: L C R, Side: L R, LFE
Частота                                  : 48,0 КГц
Битовая глубина                          : 24 бит
Метод сжатия                             : С потерями
Размер потока                            : 569 Мбайт (4%)
Язык                                     : Russian
Default                                  : Да
Forced                                   : Нет

Аудио #2
Идентификатор                            : 3
Формат                                   : DTS
Формат/Информация                        : Digital Theater Systems
Режим                                    : 16
Параметр Endianness формата              : Big
Идентификатор кодека                     : A_DTS
Продолжительность                        : 1 ч. 43 м.
Вид битрейта                             : Постоянный
Битрейт                                  : 1509 Кбит/сек
Каналы                                   : 6 каналов
Расположение каналов                     : Front: L C R, Side: L R, LFE
Частота                                  : 48,0 КГц
Битовая глубина                          : 24 бит
Метод сжатия                             : С потерями
Задержка видео                           : 11 мс.
Размер потока                            : 1,09 Гбайт (7%)
Язык                                     : English
Default                                  : Нет
Forced                                   : Нет

Текст #1
Идентификатор                            : 4
Формат                                   : UTF-8
Идентификатор кодека                     : S_TEXT/UTF8
Идентификатор кодека/Информация          : UTF-8 Plain Text
Заголовок                                : Forced
Язык                                     : Russian
Default                                  : Да
Forced                                   : Нет

Текст #2
Идентификатор                            : 5
Формат                                   : UTF-8
Идентификатор кодека                     : S_TEXT/UTF8
Идентификатор кодека/Информация          : UTF-8 Plain Text
Заголовок                                : Full
Язык                                     : Russian
Default                                  : Нет
Forced                                   : Нет

Меню
00:00:00.000                             : en:00:00:00.000
00:05:14.523                             : en:00:05:14.523
00:09:49.839                             : en:00:09:49.839
00:14:37.293                             : en:00:14:37.293
00:18:32.945                             : en:00:18:32.945
00:23:17.229                             : en:00:23:17.229
00:31:21.797                             : en:00:31:21.797
00:36:28.937                             : en:00:36:28.937
00:41:18.559                             : en:00:41:18.559
00:47:13.831                             : en:00:47:13.831
00:51:38.762                             : en:00:51:38.762
00:57:27.944                             : en:00:57:27.944
01:01:48.663                             : en:01:01:48.663
01:06:49.214                             : en:01:06:49.214
01:10:11.916                             : en:01:10:11.916
01:15:45.750                             : en:01:15:45.750
01:21:14.495                             : en:01:21:14.495
01:26:41.154                             : en:01:26:41.154
01:31:17.972                             : en:01:31:17.972
01:36:47.051                             : en:01:36:47.051

pb.wtf



Скачать Судная ночь 2 через торрент http://i66.fastpic.ru/big/2014/0909/b7/760e3b5f2bbe95bf68d689b83ee8a7b7.png Скачать фильм Судная ночь 2 через торрент бесплантно в хорошем качестве Описание: Добро пожаловать в идеальный мир будущего, мир без преступности и войн. И только один раз в году роскошная спокойная жизнь ... 9.6 10 11
Info! Золотая раздача, скачанное не засчитывается.
Торрент: Зарегистрирован [2014-11-15 20:49] · скачан: 146 раз
Статус: √ проверено
Размер: 15.52 GB
Как cкачать? Как скачать Судная ночь 2 через торрент | qTorrent

% Раздел Тема Автор DL S | L
Ultra HD (UHD: 2K, 4K, 8K) — видео сверхвысокой чёткости [ 54.95 GB ] Судная ночь 2 / The Purge: Anarchy [2014 UHD BDRemux 2160p] [] + 2xAVO sheker187 Скачать
1 | 0
Фильмы [HD 720p, 1080p] (Хороший звук DUB, MVO) [ 4.62 GB ] Судная ночь 2 / The Purge: Anarchy [2014 BDRip 720p / diletant Скачать
1 | 0
Фильмы (DVD фильмы) [ 7.06 GB ] Судная ночь 2 / The Purge: Anarchy [2014 DVD9] R5 voovaz Скачать
1 | 0
Фильмы 2014 [DVDrip, WEB-DLRip, HDrip] [ 1.52 GB ] Судная ночь 2 / The Purge: Anarchy [2014 HDRip ] Dean24 Скачать
1 | 0
Фильмы 2014 [DVDrip, WEB-DLRip, HDrip] [ 2.05 GB ] Судная ночь 2 / The Purge: Anarchy [2014 HDRip - / ] _KaisiK_ Скачать
1 | 0
Фильмы 2014 [DVDrip, WEB-DLRip, HDrip] [ 1.46 GB ] Судная ночь 2 / The Purge: Anarchy [2014 WEB-DLRip ] Ворон Скачать
1 | 0
Фильмы 2014 [DVDrip, WEB-DLRip, HDrip] [ 1.42 GB ] Судная ночь 2 / The Purge: Anarchy [2014 WEB-DLRip-AVC] ] От R.G. PiratFilms White Smoke Скачать
1 | 0


Последний раз редактировалось: Seedtank (2014-11-15 20:56), всего редактировалось 1 раз

28-11-2019 20:33  

Отключить всю рекламу на сайте

15-11-2014 20:52 Судная ночь 2 Скачать торрент  

Видеоряд от VietHD.
Релиз подготовлен специально для piratbit.cc
Вшита обложка.
pb.wtf



15-11-2014 20:56 Судная ночь 2 Скачать торрент  

Нормальный фильмец, не хуже первой части.pb.wtf



16-11-2014 02:35 Судная ночь 2 Скачать торрент  

шикарный фильм! pb.wtf



31-03-2015 18:55 Судная ночь 2 Скачать торрент  

Раздайте пожалуйста, не могу скачатьpb.wtf



    Дорогой пользователь! Огромная просьба, поблагодарите релизера, оцените раздачу и оставьте свои комментарий, если Вы скачали Судная ночь 2 через торрент бесплатно! Внесите свою лепту в развитие PiratBit!
    Комментировать посты могут только пользователи прошедшие не сложную регистрацию
    Показать сообщения:    

    Судная ночь 2 через торрент
    Скачать бесплатно Судная ночь 2
    Судная ночь 2 скачать торрент
    Судная ночь 2 смотреть онлайн
    Cкачать фильм Судная ночь 2 бесплатно
    Судная ночь 2 скачать торрент в хорошем качестве
    Судная ночь 2 смотреть онлайн бесплатно в хорошем качестве


    Вы не можете начинать темы
    Вы не можете отвечать на сообщения
    Вы не можете редактировать свои сообщения
    Вы не можете удалять свои сообщения
    Вы не можете голосовать в опросах
    Вы не можете прикреплять файлы к сообщениям
    Вы можете скачивать файлы