Ссылка на приватное зеркало всего за 1$. Внимание количество ограничено!!!

iTunes

iTunes

iTunes

1

iTunes

iTunes

iTunes

iTunes

iTunes

30
pack

$ от Little Big

ВАЖНО

!!Акция!!

Alien_RageХит недели

RePack

Resident Evil 21

ИГРА 18+

pack

RePack

jed

!!Акция!!

Alien_Rage

RePack

fifa19

RePack

Assassins Creed: Odyssey

RePack

NEED FOR SPEED™ PAYBACK

4 сезон

9 сезон

Бесстыжие 9 сезон

Все сериалы

все сериалы на PB.wtf

RePack

FAR CRY 5
  

Распущенные любительницы любят это без цензуры / Filthy Amateurs Like It Uncensored (J. Pope, Penthouse) (Chastity Lynn, Elaina Raye, India Summer, Melody Jordan, Penny Pax, Remy LaCroix) [2013 г., All Sex, Amateur, SiteRip] Half SideBySide 3D pb.wtf

Распущенные любительницы любят это без цензуры через торрент pb.wtf

Размер: 3.29 GB | Добавлен: 5 лет 6 мес. назад | Торрент скачан:1264 раза
Скачать  

16-11-2014 09:10 Распущенные любительницы любят это без цензуры Скачать торрент  

 
Filthy Amateurs Like It UncensoredГод производства: 2013 г.
Жанр: All Sex, Amateur, Half SideBySide 3D
Продолжительность: 02:24:18

Режиссер: J. Pope
Студия: Penthouse

В ролях: Chastity Lynn, Elaina Raye, India Summer, Melody Jordan, Penny Pax, Remy LaCroix, Veronica Ricci

Качество видео: SiteRip
Формат 3D: Half SideBySide / Горизонтальная анаморфная стереопара
Формат видео: WMV
Видео: WMV2, 768x432, 29.970 fps, 3 096 Kbps, 0.311 bit/pixel
Аудио: WMA, 48.0 KHz, 2 ch, 32.0 Kbps
 скриншот  
скриншот  
скриншот   скриншот   скриншот   скриншот  
скриншот  
General
Complete name : 3dtbp.pfalitu.wmv
Format : Windows Media
File size : 3.29 GiB
Duration : 2h 24mn
Overall bit rate : 3 267 Kbps
Maximum Overall bit rate : 32.0 Kbps
Encoded date : UTC 1970-01-01 00:00:00.000
WM/EncodingSettings : Lavf56.4.101

Video
ID : 1
Format : WMV2
Codec ID : WMV2
Codec ID/Info : Windows Media Video 8
Description of the codec : wmv2
Duration : 2h 24mn
Bit rate : 3 096 Kbps
Width : 768 pixels
Height : 432 pixels
Display aspect ratio : 16:9
Frame rate : 29.970 fps
Bit depth : 8 bits
Bits/(Pixel*Frame) : 0.311
Stream size : 3.12 GiB (95%)

Audio
ID : 2
Format : WMA
Format version : Version 2
Codec ID : 161
Codec ID/Info : Windows Media Audio
Description of the codec : Windows Media Audio V8
Duration : 2h 24mn
Bit rate : 32.0 Kbps
Channel(s) : 2 channels
Sampling rate : 48.0 KHz
Bit depth : 16 bits
Stream size : 33.0 MiB (1%)
pb.wtf



pack Скачать Распущенные любительницы любят это без цензуры через торрент http://pic.kartinco.top/images/8/siq35.jpg Скачать фильм Распущенные любительницы любят это без цензуры через торрент бесплантно в хорошем качестве В ролях: Chastity Lynn, Elaina Raye, India Summer, Melody Jordan, Penny Pax, Remy LaCroix, Veronica ... 10 10 15
Торрент: Зарегистрирован [2014-11-16 09:10] · скачан: 1 264 раз
Статус: √ проверено
Размер: 3.29 GB
Как cкачать? Как скачать Распущенные любительницы любят это без цензуры через торрент | qTorrent

28-11-2019 20:33  

Отключить всю рекламу на сайте

    Дорогой пользователь! Огромная просьба, поблагодарите релизера, оцените раздачу и оставьте свои комментарий, если Вы скачали Распущенные любительницы любят это без цензуры через торрент бесплатно! Внесите свою лепту в развитие PiratBit!
    Комментировать посты могут только пользователи прошедшие не сложную регистрацию
    Показать сообщения:    

    Распущенные любительницы любят это без цензуры через торрент
    Скачать бесплатно Распущенные любительницы любят это без цензуры
    Распущенные любительницы любят это без цензуры скачать торрент
    Распущенные любительницы любят это без цензуры смотреть онлайн
    Cкачать фильм Распущенные любительницы любят это без цензуры бесплатно
    Распущенные любительницы любят это без цензуры скачать торрент в хорошем качестве
    Распущенные любительницы любят это без цензуры смотреть онлайн бесплатно в хорошем качестве


    Вы не можете начинать темы
    Вы не можете отвечать на сообщения
    Вы не можете редактировать свои сообщения
    Вы не можете удалять свои сообщения
    Вы не можете голосовать в опросах
    Вы не можете прикреплять файлы к сообщениям
    Вы можете скачивать файлы