Ссылка на приватное зеркало нашего сайта всего за 1$. Внимание количество ограничено!!!

2 сезон

iTunes

1 сезон

1

iTunes

iTunes

iTunes

1 сезон

RePack

30

ИГРА 18+

pack

ВАЖНО

!!Акция!!

Alien_RageХит недели

RePack

MK11
pack

Забери бонус

RePack

jed

!!Акция!!

Alien_Rage

RePack

fifa19

RePack

Assassins Creed: Odyssey

RePack

NEED FOR SPEED™ PAYBACK

4 сезон

9 сезон

Бесстыжие 9 сезон

Все сериалы

все сериалы на PB.wtf

RePack

FAR CRY 5
  

Легавый (1 Сезон: 1-24 серии из 24) (Рустам Уразаев, Сергей Артимович) [2012 г., Детектив, DVB] Оригинал pb.wtf

Легавый через торрент pb.wtf

Размер: 40.79 GB | Добавлен: 5 лет 11 мес. назад | Торрент скачан:85 раз
Скачать  

16-11-2014 14:15 Легавый Скачать торрент  

Легавый
Год выпуска: 2012
Страна: Россия
Жанр: Детектив
Продолжительность: 24 x ~ 00:45:00
Перевод: Оригинал
Субтитры: нет

Режиссер: Рустам Уразаев, Сергей Артимович

В ролях: Эдуард Флёров, Николай Козак, Михаил Горевой, Елена Полякова, Павел Трубинер, Михаил Павлик, Михаил Асанкин, Андрей Зубков, Сергей Шарифуллин, Евгений Березовский, Николай Боканов, Сергей Карпов (II), Максим Литовченко, Рустам Уразаев, Джамболат Сланов, Александр Вилков, Андрей Гусев, Евгения Дмитриева, Сергей Походаев, Олег Дуленин, Олег Новиков, Мария Шамшина, Юрий Брешин, Владислав Резник, Дмитрий Богданов, Дмитрий Соколов, Семён Иванов (II), Константин Глушков, Людмила Пошехонова, Алексей Огурцов, Вера Смолина, Евгений Баяндин, Александр Боровиков, Валентин Лушкевич, Валерий Квитка, Сергей Молодцов, Игорь Сидоренко, Олег Новичев, Андрей Лукьянов, Ольга Дымская, Дима Полунин, Татьяна Исаев

Описание: 1948 год. Бывший фронтовой разведчик, капитан Юрий Козырев (Эдуард Флёров), попавший в плен в последние дни войны и получивший за это срок, выходит из лагеря. Теперь он полностью оправдан и восстановлен в правах. По дороге домой Козырев видит, что на склад напали бандиты. Фронтовая выучка помогает ему обезвредить банду. Майор милиции Грунин предлагает Юрию работу в органах, на Петровке, но Козырев хочет домой, в Петрово. Но возвращение домой не приносит ему большой радости. Юрий узнает, что его отец пропал без вести на фронте, мать умерла, а любимая девушка Лариса вышла замуж за другого... На завод, где Козырев работал до войны техником, с политической статьей, пусть даже и полностью реабилитированным, его обратно не берут. И тогда Козырев идет в милицию, где принмает предложение начальника отделения майора Докукина стать стажером. Первое задание не заставляет себя ждать: накануне на железнодорожной станции убит милиционер. Фронтовой опыт помогает Козыреву восстанавить картину убийства. И тут же новое задание: в доме у матери замечен бывший полицай - некто Малёнкин. Козырев и участковый Ефимов отправляются на захват. Юрий задерживает Малёнкина, который применяет против безоружного стажера целый арсенал. Начальство узнает, что один из прежних друзей Козырева - Чалый (Николай Козак) - возглавляет местную преступную группировку, и это ставит Юрия в рамки треугольника: между бывшими товарищами по оружию, коллегами по службе и уголовниками... Да и личная жизнь Козырева "бьёт ключом". Как будут развиваться события дальше? Чем будут наполнены опасные будни опера? С какими трудностями послевоенного быта придётся сталкиваться героям картины? И как сложатся непростые личные отношения Юрия Козырева с женщинами - смотрите в новом остросюжетном сериале "Легавый"!

Качество:DVB
Формат: MPEG
Видео кодек: MPEG2
Аудио кодек: MP2
Видео: MPEG-2, (768x576),5140 Кбит/с, 25.000 кадра/сек
Аудио#1: MP2, 2 ch, 192 kbps (Rus) 48.0 KHz Оригинал
скриншот   скриншот   скриншот  

Тип потока: Видео
Длительность: 00:44:20
Кодек: MPEG Video
Кодек/профиль: Main@Main
Кодек/версия: Version 2
Размеры изображения: 768 x 576 (4:3)
Частота кадров: 25.000 fps
Размер потока: 1.59 GiB (94%)
Битрейт: 5 141 Kbps
Битрейт/макс: 15.0 Mbps
Битрейт/тип: VBR
Метод сжатия: Lossy
Стандарт: PAL
Библиотека кодирования: (c) 1998-2012 Womble Multimedia, Inc. / MPEG Video Wizard DVD 5.0.1.100 (03/2011) / Sep 7 2012
Цветовое пространство: YUV
Тип развёртки: Interlaced
Колориметрия: 4:2:0
Глубина: 8 bits
:
Тип потока: Звук #1
Длительность: 00:44:20.232
Кодек: MPEG Audio
Кодек/профиль: Layer 2
Частота дискретизации: 48.0 KHz
Каналов: 2 channels
Битрейт: 192 Kbps
Битрейт/тип: Constant
Размер потока: 60.9 MiB (4%)
Метод сжатия: Lossy

pb.wtf



Скачать Легавый через торрент http://pic.kartinco.top/images/8/fxiv6.jpg Скачать фильм Легавый через торрент бесплантно в хорошем качестве Описание: 1948 год. Бывший фронтовой разведчик, капитан Юрий Козырев (Эдуард Флёров), попавший в плен в последние дни войны и получивший за ... 9.7 10 9
Info! Золотая раздача, скачанное не засчитывается.
Торрент: Зарегистрирован [2014-11-16 14:15] · скачан: 85 раз
Статус: √ проверено
Размер: 40.79 GB
Как cкачать? Как скачать Легавый через торрент | qTorrent

% Раздел Тема Автор DL S | L
Наши сериалы [ 28.88 GB ] Легавый [2014 DVB] Оригинал Бумер Скачать
1 | 0
Фильмы [HD 720p, 1080p] (Хороший звук DUB, MVO) [ 7.76 GB ] Типа крутые легавые / Hot Fuzz [ 2007 BDRip 1080р] + Оригинал Бумер Скачать
1 | 0

28-11-2019 20:33  

Отключить всю рекламу на сайте

    Дорогой пользователь! Огромная просьба, поблагодарите релизера, оцените раздачу и оставьте свои комментарий, если Вы скачали Легавый через торрент бесплатно! Внесите свою лепту в развитие PiratBit!
    Комментировать посты могут только пользователи прошедшие не сложную регистрацию
    Показать сообщения:    

    Легавый через торрент
    Скачать бесплатно Легавый
    Легавый скачать торрент
    Легавый смотреть онлайн
    Cкачать фильм Легавый бесплатно
    Легавый скачать торрент в хорошем качестве
    Легавый смотреть онлайн бесплатно в хорошем качестве


    Вы не можете начинать темы
    Вы не можете отвечать на сообщения
    Вы не можете редактировать свои сообщения
    Вы не можете удалять свои сообщения
    Вы не можете голосовать в опросах
    Вы не можете прикреплять файлы к сообщениям
    Вы можете скачивать файлы