Ссылка на приватное зеркало всего за 1$. Внимание количество ограничено!!!

iTunes

1+1

iTunes

мы

WEB-DL

1

iTunes

Чернобыль

iTunes

Ральф против интернета

Лицензия

ПШазам

Лицензия

Оно 2

Лицензия

30
pack

Вам бонус

ВАЖНО

!!Акция!!

Alien_RageХит недели

RePack

Resident Evil 21

ИГРА 18+

pack

RePack

jed

!!Акция!!

Alien_Rage

RePack

fifa19

RePack

Assassins Creed: Odyssey

RePack

NEED FOR SPEED™ PAYBACK

3 сезон

9 сезон

Бесстыжие 9 сезон

Все сериалы

все сериалы на PB.wtf

RePack

FAR CRY 5
Ребята, катастрофически не хватает 1900р. для оплаты серверов за Октябрь (всвязи с блокировками трафик упал в 3 раза), 1-2р., выручайте.
  

Оставленные / Left Behind (Вик Армстронг / Vic Armstrong) [2014, США, фантастика, триллер, драма, HDRip] DUB Лицензия pb.wtf

Оставленные через торрент pb.wtf

Размер: 1.46 GB | Добавлен: 5 лет назад | Торрент скачан:2070 раз
Скачать  

11-11-2014 22:08 Оставленные Скачать торрент  

Оставленные / Left Behind«Начало конца»
Год выпуска: 2014
Страна: США
Жанр: фантастика, триллер, драма
Продолжительность: 01:45:34
Перевод: Дубляж - [Лицензия]
Субтитры: Отсутствует
Режиссер: Вик Армстронг / Vic Armstrong
В ролях:


Николас Кейдж (Rayford Steele), Чад Майкл Мюррэй (Buck Williams), Касси Томсон (Chloe Steele), Никки Уилан (Hattie Durham), Джордин Спаркс (Shasta Carvell), Лиа Томпсон (Irene Steele), Уильям Рэгсдэйл (Chris Smith), Лаура Кайот (Neighbor Woman), Куинтон Аарон (Simon), Мартин Клебба (Melvin Weir), Стефани Онор (Kimmy), Джорджина Роулингс (Venice Baxter)

Описание:
История летчика Рэйфорда Стила, столкнувшегося во время рейса с исчезновением нескольких пассажиров прямо из салона самолета. Вскоре становится известно о случаях бесследного исчезновения и в других местах. Людей охватывает паника.

Рейтинг:
Бюджет: $16 000 000
MPAA: PG-13 - Детям до 13 лет просмотр не желателен
Качество: HDRip
Формат: AVI
Видео кодек:XviD
Аудио кодек:AC3
Видео: XviD, 720x304 (2.35:1), 1517 kbps, 25 fps, 0,277 bpp
Аудио: AC3 / 5.1 / 48 kHz / 448 kbps / 16 bit

General
Complete name : D:\Users\_KaisiK_\uTorrent\КИНО\Ostavlennye.2014.D.HDRip.1.46Gb.avi
Format : AVI
Format/Info : Audio Video Interleave
File size : 1.46 GiB
Duration : 1h 45mn
Overall bit rate : 1 975 Kbps
Writing application : VirtualDubMod 1.5.10.3 | www.virtualdub-fr.org || (build 2550/release)
Writing library : VirtualDubMod build 2550/release

Video
ID : 0
Format : MPEG-4 Visual
Format profile : Advanced Simple@L5
Format settings, BVOP : 2
Format settings, QPel : No
Format settings, GMC : No warppoints
Format settings, Matrix : Default (MPEG)
Codec ID : XVID
Codec ID/Hint : XviD
Duration : 1h 45mn
Bit rate : 1 518 Kbps
Width : 720 pixels
Height : 304 pixels
Display aspect ratio : 2.35:1
Frame rate : 25.000 fps
Color space : YUV
Chroma subsampling : 4:2:0
Bit depth : 8 bits
Scan type : Progressive
Compression mode : Lossy
Bits/(Pixel*Frame) : 0.277
Stream size : 1.12 GiB (77%)
Writing library : XviD 1.2.1 (UTC 2008-12-04)

Audio
ID : 1
Format : AC-3
Format/Info : Audio Coding 3
Mode extension : CM (complete main)
Codec ID : 2000
Duration : 1h 45mn
Bit rate mode : Constant
Bit rate : 448 Kbps
Channel(s) : 6 channels
Channel positions : Front: L C R, Side: L R, LFE
Sampling rate : 48.0 KHz
Bit depth : 16 bits
Compression mode : Lossy
Stream size : 338 MiB (23%)
Alignment : Split accross interleaves
Interleave, duration : 40 ms (1.00 video frame)
Interleave, preload duration : 500 ms

[/code]
pb.wtf



Скачать Оставленные через торрент http://i65.fastpic.ru/big/2014/1112/23/a865902fb7c27c46a7954fff9f385723.png Скачать фильм Оставленные через торрент бесплантно в хорошем качестве Описание: История летчика Рэйфорда Стила, столкнувшегося во время рейса с исчезновением нескольких пассажиров прямо из салона самолета. ... 9.3 10 62
Торрент: Зарегистрирован [2014-11-16 14:26] · скачан: 2 070 раз
Статус: √ проверено
Размер: 1.46 GB
Как cкачать? Как скачать Оставленные через торрент | qTorrent



Последний раз редактировалось: _KaisiK_ (2014-12-23 11:21), всего редактировалось 1 раз

28-11-2019 20:33  

Отключить всю рекламу на сайте

12-11-2014 05:42 Оставленные Скачать торрент  

фильм полное :cansored:pb.wtf



12-11-2014 11:05 Оставленные Скачать торрент  

беспонтовое кинцо)))pb.wtf



13-11-2014 14:58 Оставленные Скачать торрент  

этим фильмом можно пытать людей.pb.wtf



13-11-2014 15:05 Оставленные Скачать торрент  

бесплатное кинцо )))))pb.wtf



13-11-2014 18:41 Оставленные Скачать торрент  

это отстойный треш,говнище редкостное.смотрел из за Кейджа,ссука,да как он мог так опуститься?!это :jest3:,как она есть )))pb.wtf



15-11-2014 10:12 Оставленные Скачать торрент  

Фильм не о чем, такое чувство, что это первая серия, плохого сериала.pb.wtf



16-11-2014 09:06 Оставленные Скачать торрент  

самый тупой из самых дешевых и самый дешевый из самых тупых фильмов в коллекции кейджа, да не, вообще в коллекции фантастических фильмовpb.wtf



16-11-2014 15:23 Оставленные Скачать торрент  

походу кейдж ушел в банду вандама и сигала,то есть постарелpb.wtf



16-11-2014 16:00 Оставленные Скачать торрент  

Хреньpb.wtf



16-11-2014 16:04 Оставленные Скачать торрент  

Я так понял на трэкере, смысла этого фильма не поняли...pb.wtf



16-11-2014 17:11 Оставленные Скачать торрент  

вангую что фильм снят за ящик жигулевского а эти 16 лямов получил кейджpb.wtf



22-11-2014 05:12 Оставленные Скачать торрент  

хрень какая тоpb.wtf



01-01-2015 21:45 Оставленные Скачать торрент  

прикольное кино, в свете текущей ситуации в мире. только намёк непонял, в конце песня про ветер перемен)pb.wtf



    Дорогой пользователь! Огромная просьба, поблагодарите релизера, оцените раздачу и оставьте свои комментарий, если Вы скачали Оставленные через торрент бесплатно! Внесите свою лепту в развитие PiratBit!
    Комментировать посты могут только пользователи прошедшие не сложную регистрацию
    Показать сообщения:    

    Оставленные через торрент
    Скачать бесплатно Оставленные
    Оставленные скачать торрент
    Оставленные смотреть онлайн
    Cкачать фильм Оставленные бесплатно
    Оставленные скачать торрент в хорошем качестве
    Оставленные смотреть онлайн бесплатно в хорошем качестве


    Вы не можете начинать темы
    Вы не можете отвечать на сообщения
    Вы не можете редактировать свои сообщения
    Вы не можете удалять свои сообщения
    Вы не можете голосовать в опросах
    Вы не можете прикреплять файлы к сообщениям
    Вы можете скачивать файлы