Ссылка на приватное зеркало нашего сайта всего за 1$. Внимание количество ограничено!!!

2 сезон

iTunes

1 сезон

1

iTunes

iTunes

iTunes

1 сезон

RePack

30

ИГРА 18+

pack

ВАЖНО

!!Акция!!

Alien_RageХит недели

RePack

MK11
pack

Забери бонус

RePack

jed

!!Акция!!

Alien_Rage

RePack

fifa19

RePack

Assassins Creed: Odyssey

RePack

NEED FOR SPEED™ PAYBACK

4 сезон

9 сезон

Бесстыжие 9 сезон

Все сериалы

все сериалы на PB.wtf

RePack

FAR CRY 5
  

Неудержимые 3 / The Expendables 3 (Патрик Хьюз / Patrick Hughes) [2014, боевик, триллер, приключения, BDRip 1080p, Dub, Лицензия] pb.wtf

Неудержимые 3 через торрент pb.wtf

Размер: 11.48 GB | Добавлен: 5 лет 2 мес. назад | Торрент скачан:377 раз
Скачать  

16-11-2014 23:01 Неудержимые 3 Скачать торрент  

Неудержимые 3 / The Expendables 3
«Сборная Голливуда снова в игре»



Год выпуска: 2014
Страна: США, Франция
Жанр: боевик, триллер, приключения
Продолжительность: 02:06:30
Перевод: Дублированный [Лицензия]
Субтитры: Русские (Полные)



Режиссер:
  • Патрик Хьюз / Patrick Hughes
В ролях:
  • Сильвестр Сталлоне, Джейсон Стэйтем, Харрисон Форд, Арнольд Шварценеггер, Мэл Гибсон, Уэсли Снайпс, Дольф Лундгрен, Рэнди Кутюр, Терри Крюс, Келси Грэммер, Глен Пауэлл, Антонио Бандерас

Описание: Барни, Кристмас и остальные члены команды сходятся лицом к лицу с Конрадом Стоунбэнксом, многие годы назад основавшем вместе с Барни команду «Неудержимых». Впоследствии Стоунбэнкс становится безжалостным торговцем оружием и тем самым превращается в человека, которого Барни было поручено убить. Или по крайней мере он сам так считал. Теперь Стоунбэнкс, один раз уже сумевший обмануть смерть, поставил себе цель покончить с «Неудержимыми» - но у Барни на этот счет свои планы. Барни решает, что в его борьбе «свежий» подход можно противопоставить старым методам, и пополняет ряды людьми, которые моложе, быстрее и технически более подкованные. Так у членов команды «Неудержимых» начинается новая эра. Последняя миссия превращается в столкновение между представителями классической старой школы и экспертами в высоких технологиях.



Качество: BDRip 1080p
Формат: MKV
Видео кодек: AVC
Аудио кодек: DTS
Видео: 1920x800 (2.40:1), 23,976 fps, 9733 kbps, 0,264 bpp
Аудио №1: русский, DTS, 48 kHz, 5.1 ch, 1510 kbps
Аудио №2: английский, DTS, 48 kHz, 5.1 ch, 1510 kbps


Код:

Общее
Уникальный идентификатор                 : 224729695282195527310948449611694914308 (0xA9115D6D9B0DBFF597E03A4E81E6BB04)
Полное имя                               : E:\Неудержимые 3 (2014) BDRip 1080p.mkv
Формат                                   : Matroska
Версия формата                           : Version 4 / Version 2
Размер файла                             : 11,5 Гбайт
Продолжительность                        : 2 ч. 6 м.
Общий поток                              : 13,0 Мбит/сек
Дата кодирования                         : UTC 2014-11-22 00:05:25
Программа кодирования                    : mkvmerge v6.9.1 ('Blue Panther') 64bit built on Apr 18 2014 18:23:38
Библиотека кодирования                   : libebml v1.3.0 + libmatroska v1.4.1
Attachements                             : cover.jpg

Видео
Идентификатор                            : 1
Формат                                   : AVC
Формат/Информация                        : Advanced Video Codec
Профиль формата                          : High@L4.1
Параметр CABAC формата                   : Да
Параметр ReFrames формата                : 5 кадров
Идентификатор кодека                     : V_MPEG4/ISO/AVC
Продолжительность                        : 2 ч. 6 м.
Битрейт                                  : 9712 Кбит/сек
Ширина                                   : 1920 пикселей
Высота                                   : 800 пикселей
Соотношение сторон                       : 2,40:1
Режим частоты кадров                     : Постоянный
Частота кадров                           : 23,976 кадра/сек
Цветовое пространство                    : YUV
Субдискретизация насыщенности            : 4:2:0
Битовая глубина                          : 8 бит
Тип развёртки                            : Прогрессивная
Бит/(Пиксели*Кадры)                      : 0.264
Размер потока                            : 8,58 Гбайт (75%)
Заголовок                                : HDAccess
Библиотека кодирования                   : x264 core 142 r2479kMod dd79a61
Настройки программы                      : cabac=1 / ref=5 / deblock=1:-3:-3 / analyse=0x3:0x133 / me=umh / subme=11 / psy=1 / fade_compensate=0.00 / psy_rd=1.05:0.00 / mixed_ref=1 / me_range=48 / chroma_me=1 / trellis=2 / 8x8dct=1 / cqm=0 / deadzone=21,11 / fast_pskip=0 / chroma_qp_offset=-2 / threads=18 / lookahead_threads=3 / sliced_threads=0 / nr=0 / decimate=1 / interlaced=0 / bluray_compat=0 / constrained_intra=0 / fgo=0 / bframes=9 / b_pyramid=2 / b_adapt=2 / b_bias=0 / direct=3 / weightb=1 / open_gop=0 / weightp=2 / keyint=230 / keyint_min=23 / scenecut=40 / intra_refresh=0 / rc_lookahead=40 / rc=crf / mbtree=0 / crf=17.8000 / qcomp=0.70 / qpmin=0 / qpmax=69 / qpstep=4 / vbv_maxrate=50000 / vbv_bufsize=62500 / crf_max=0.0 / nal_hrd=none / filler=0 / ip_ratio=1.20 / pb_ratio=1.10 / aq=1:0.85
Язык                                     : English
Default                                  : Да
Forced                                   : Нет
Коэффициенты матрицы                     : BT.709
colour_range                             : Limited

Аудио #1
Идентификатор                            : 2
Формат                                   : DTS
Формат/Информация                        : Digital Theater Systems
Режим                                    : 16
Параметр Endianness формата              : Big
Идентификатор кодека                     : A_DTS
Продолжительность                        : 2 ч. 6 м.
Вид битрейта                             : Постоянный
Битрейт                                  : 1510 Кбит/сек
Каналы                                   : 6 каналов
Расположение каналов                     : Front: L C R, Side: L R, LFE
Частота                                  : 48,0 КГц
Битовая глубина                          : 24 бит
Метод сжатия                             : С потерями
Задержка видео                           : 2 с. 50 мс.
Размер потока                            : 1,33 Гбайт (12%)
Язык                                     : Russian
Default                                  : Да
Forced                                   : Нет

Аудио #2
Идентификатор                            : 3
Формат                                   : DTS
Формат/Информация                        : Digital Theater Systems
Режим                                    : 16
Параметр Endianness формата              : Big
Идентификатор кодека                     : A_DTS
Продолжительность                        : 2 ч. 6 м.
Вид битрейта                             : Постоянный
Битрейт                                  : 1510 Кбит/сек
Каналы                                   : 6 каналов
Расположение каналов                     : Front: L C R, Side: L R, LFE
Частота                                  : 48,0 КГц
Битовая глубина                          : 24 бит
Метод сжатия                             : С потерями
Размер потока                            : 1,33 Гбайт (12%)
Язык                                     : English
Default                                  : Нет
Forced                                   : Нет

Текст
Идентификатор                            : 4
Формат                                   : UTF-8
Идентификатор кодека                     : S_TEXT/UTF8
Идентификатор кодека/Информация          : UTF-8 Plain Text
Заголовок                                : Full
Язык                                     : Russian
Default                                  : Нет
Forced                                   : Нет

Меню
00:00:00.000                             : en:00:00:00.000
00:05:54.354                             : en:00:05:54.354
00:12:41.561                             : en:00:12:41.561
00:25:12.711                             : en:00:25:12.711
00:33:22.801                             : en:00:33:22.801
00:46:10.768                             : en:00:46:10.768
00:58:49.926                             : en:00:58:49.926
01:10:45.041                             : en:01:10:45.041
01:15:44.140                             : en:01:15:44.140
01:26:39.594                             : en:01:26:39.594
01:51:11.064                             : en:01:51:11.064
01:55:48.542                             : en:01:55:48.542

pb.wtf



Скачать Неудержимые 3 через торрент http://i66.fastpic.ru/big/2014/0909/b7/760e3b5f2bbe95bf68d689b83ee8a7b7.png Скачать фильм Неудержимые 3 через торрент бесплантно в хорошем качестве Описание: Барни, Кристмас и остальные члены команды сходятся лицом к лицу с Конрадом Стоунбэнксом, многие годы назад основавшем вместе с ... 9.6 10 67
Info! Золотая раздача, скачанное не засчитывается.
Торрент: Зарегистрирован [2015-07-31 13:11] · скачан: 377 раз
Статус: √ проверено
Размер: 11.48 GB
Как cкачать? Как скачать Неудержимые 3 через торрент | qTorrent

% Раздел Тема Автор DL S | L
Ultra HD (UHD: 2K, 4K, 8K) — видео сверхвысокой чёткости [ 26.13 GB ] Неудержимые 3 / The Expendables 3 [2014 UHD BDRip 2160p] [Театральная версия] DUB [] bober100 Скачать
1 | 0
Ultra HD (UHD: 2K, 4K, 8K) — видео сверхвысокой чёткости [ 57.99 GB ] Неудержимые 3 / The Expendables 3 [2014 UHD BDRemux 2160p] DUB [] +AVO [Д.Есарев] [Театральная версия] bober100 Скачать
1 | 0
Ultra HD (UHD: 2K, 4K, 8K) — видео сверхвысокой чёткости [ 31.34 GB ] Неудержимые 3 / The Expendables 3 [2014 UHD WEBRip 2160p] [Театральная версия/Theatrical Cut] DUB+AVO [] bober100 Скачать
1 | 0
Фильмы 2014 [DVDrip, WEB-DLRip, HDrip] [ 1.46 GB ] Неудержимые 3 / The Expendables 3 [2014 BDRip-AVC] [UNRATED] Dub sokol_ok Скачать
2 | 0
Фильмы [HD 720p, 1080p] (Хороший звук DUB, MVO) [ 7.72 GB ] Неудержимые 3 / The Expendables 3 [2014 BDRip 720p] DUB 4xAVO _denis_100 Скачать
1 | 0
Фильмы (Blu-ray, BD-Remux, HDDVD) [ 41.53 GB ] Неудержимые 3 / The Expendables 3 [2014 Blu-Ray Remux DUB AVO] кэп Скачать
1 | 0
Фильмы 2014 [DVDrip, WEB-DLRip, HDrip] [ 1.46 GB ] Неудержимые 3 / The Expendables 3 [2014 HDRip-AVC] DUB [] От R.G. PiratFilms White Smoke Скачать
1 | 0


Последний раз редактировалось: Seedtank (2014-11-22 00:33), всего редактировалось 5 раз(а)

28-11-2019 20:33  

Отключить всю рекламу на сайте

16-11-2014 23:09 Неудержимые 3 Скачать торрент  

Видеоряд от HDAccess.
Релиз подготовлен специально для piratbit.cc
Вшита обложка.
22.11 торрент обновлён! Чистый звук заменён на лицензию! Просьба перекачать торрент-файл.
pb.wtf





Последний раз редактировалось: Seedtank (2014-11-22 00:36), всего редактировалось 4 раз(а)

17-11-2014 12:29 Неудержимые 3 Скачать торрент  

хороший фильм.pb.wtf



01-08-2015 12:05 Неудержимые 3 Скачать торрент  

фильм - говно.pb.wtf



    Дорогой пользователь! Огромная просьба, поблагодарите релизера, оцените раздачу и оставьте свои комментарий, если Вы скачали Неудержимые 3 через торрент бесплатно! Внесите свою лепту в развитие PiratBit!
    Комментировать посты могут только пользователи прошедшие не сложную регистрацию
    Показать сообщения:    

    Неудержимые 3 через торрент
    Скачать бесплатно Неудержимые 3
    Неудержимые 3 скачать торрент
    Неудержимые 3 смотреть онлайн
    Cкачать фильм Неудержимые 3 бесплатно
    Неудержимые 3 скачать торрент в хорошем качестве
    Неудержимые 3 смотреть онлайн бесплатно в хорошем качестве


    Вы не можете начинать темы
    Вы не можете отвечать на сообщения
    Вы не можете редактировать свои сообщения
    Вы не можете удалять свои сообщения
    Вы не можете голосовать в опросах
    Вы не можете прикреплять файлы к сообщениям
    Вы можете скачивать файлы