2 сезон

iTunes

MVO

1

2 сезон

iTunes

iTunes

1 сезон

RePack

30

Новинка

ВАЖНО

ИГРА 18+

pack

RePack

MK11
pack

Легкие деньги

RePack

jed

RePack

fifa19

RePack

RDR2

RePack

NEED FOR SPEED™ PAYBACK

4 сезон

9 сезон

Бесстыжие 9 сезон

Все сериалы

все сериалы на PB.wtf

RePack

FAR CRY 5

Anonymous, доброй ночи, мы не успеваем собрать деньги на оплату серверов за декабрь и январь, помогите нам пожалуйста в это трудное время. В качестве благодарности мы отключим Вам всю рекламу на сайте (укажите свой ник в строку Ваше имя)!

×
  
Magnet ссылка

Геракл / Hercules (Бретт Рэтнер / Brett Ratner) [2014, США, боевик, приключения, BDRip, Дубляж - Лицензия / iTunes][Theatrical Cut] pb.wtf

Геракл через торрент pb.wtf

Размер: 1.46 GB | Добавлен: 6 лет 2 мес. назад | Торрент скачан:2716 раз
Скачать  

17-11-2014 00:18 Геракл Скачать торрент  

Геракл / Hercules«Множество врагов. Двенадцать подвигов. Один герой»
Год выпуска: 2014
Страна: США
Жанр: боевик, приключения
Продолжительность: 01:38:04
Перевод: Дубляж - [Лицензия / iTunes]
Субтитры: Отсутствует
Режиссер: Бретт Рэтнер / Brett Ratner
В ролях:


Дуэйн Джонсон (Hercules), Иэн МакШейн (Amphiaraus), Джон Хёрт (Lord Cotys), Руфус Сьюэлл (Autolycus), Аксель Хенни (Tydeus), Ингрид Больсё Бердаль (Atalanta), Рис Ричи (Iolaus), Джозеф Файнс (King Eurystheus), Тобиас Зантельман (Rhesus), Питер Муллан (Sitacles), Ребекка Фергюсон (Ergenia), Исаак Эндрюс (Arius)

Описание:
Более тысячи лет назад измученная душа скиталась по Земле, полубог, получеловек - Геракл - могучий сын царя богов Зевса, совершив все 12 подвигов, потерял семью и теперь находит утешение только в кровавых битвах.
За эти годы он собирает вокруг себя шестерых таких же потерянных воинов, единственным смыслом жизни для которых стали сражения и присутствие смертельной опасности. Эти мужчины и женщина никогда не задают вопрос, где, почему или с кем они идут сражаться; только, сколько им заплатят. Зная это, фракийский царь Котис нанимает этих воинов, чтобы они обучили его солдат и сделали из них самую сильную и великую армию всех времен.

Рейтинг:
Бюджет: $100 000 000
MPAA: PG-13 - Детям до 13 лет просмотр не желателен
Качество: BDRip
Формат: AVI
Видео кодек:XviD
Аудио кодек:AC3
Видео: XviD, 720x304 (2.35:1), 1738 kbps, 23,976 fps, 0,331 bpp
Аудио: AC3 / 5.1 / 48 kHz / 384 kbps / 16 bit
Примечание: Театральная версия. Полный перевод!
General
Complete name : D:\Users\_KaisiK_\uTorrent\КИНО\Ger4kl.2014.Theatrical.D.BDRip.1400MB.avi
Format : AVI
Format/Info : Audio Video Interleave
File size : 1.46 GiB
Duration : 1h 38mn
Overall bit rate : 2 132 Kbps
Writing application : VirtualDubMod 1.5.10.3 | www.virtualdub-fr.org || (build 2550/release)
Writing library : VirtualDubMod build 2550/release

Video
ID : 0
Format : MPEG-4 Visual
Format profile : Advanced Simple@L5
Format settings, BVOP : 2
Format settings, QPel : No
Format settings, GMC : No warppoints
Format settings, Matrix : Default (MPEG)
Codec ID : XVID
Codec ID/Hint : XviD
Duration : 1h 38mn
Bit rate : 1 739 Kbps
Width : 720 pixels
Height : 304 pixels
Display aspect ratio : 2.35:1
Frame rate : 23.976 fps
Color space : YUV
Chroma subsampling : 4:2:0
Bit depth : 8 bits
Scan type : Progressive
Compression mode : Lossy
Bits/(Pixel*Frame) : 0.331
Stream size : 1.19 GiB (82%)
Writing library : XviD 1.2.1 (UTC 2008-12-04)

Audio
ID : 1
Format : AC-3
Format/Info : Audio Coding 3
Mode extension : CM (complete main)
Codec ID : 2000
Duration : 1h 38mn
Bit rate mode : Constant
Bit rate : 384 Kbps
Channel(s) : 6 channels
Channel positions : Front: L C R, Side: L R, LFE
Sampling rate : 48.0 KHz
Bit depth : 16 bits
Compression mode : Lossy
Stream size : 269 MiB (18%)
Alignment : Split accross interleaves
Interleave, duration : 42 ms (1.00 video frame)
Interleave, preload duration : 500 ms

[/code]
pb.wtf



Скачать Геракл через торрент http://i64.fastpic.ru/big/2014/1117/e9/f913aa8a56730f83e5df85de25513fe9.png Скачать фильм Геракл через торрент бесплантно в хорошем качестве Описание: Более тысячи лет назад измученная душа скиталась по Земле, полубог, получеловек - Геракл - могучий сын царя богов Зевса, совершив ... 9.5 10 57
Info! Золотая раздача, скачанное не засчитывается.
Торрент: Зарегистрирован [2014-11-17 00:18] · скачан: 2 716 раз
Статус: √ проверено
Размер: 1.46 GB
Как cкачать? Как скачать Геракл через торрент | UTorrent

% Раздел Тема Автор DL S | L
Фильмы [HD 720p, 1080p] (Хороший звук DUB, MVO) [ 3.87 GB ] Геракл / Hercules [2014 BDRip 1080p-HEVC 10bit + VO] [Расширенная версия / Extended Cut] ADVOKAT69 Скачать
2 | 0
Ultra HD (UHD: 2K, 4K, 8K) — видео сверхвысокой чёткости [ 56.12 GB ] Геракл: Начало легенды / The Legend of Hercules [2014 UHD BDRemux 2160p] - [] sheker187 Скачать
1 | 0
Фильмы 2014 [DVDrip, WEB-DLRip, HDrip] [ 2.18 GB ] Геракл: Начало легенды / The Legend of Hercules [2014 Болгария HDRip-AVC] - [] От R.G. PiratFilms White Smoke Скачать
1 | 0
Фильмы с авторской озвучкой [ 1.46 GB ] Геракл / Hercules [2014 BDRip] [Расширенная версия] [AVO] killermax2013 Скачать
1 | 0
Фильмы [HD 720p, 1080p] (Хороший звук DUB, MVO) [ 11.02 GB ] Геракл / Hercules [2014 BDRip 1080p Dub ] Seedtank Скачать
1 | 0
Фильмы 2014 [DVDrip, WEB-DLRip, HDrip] [ 2.19 GB ] Геракл / Hercules [2014 BDRip - [ ] [Theatrical Cut] Ворон Скачать
2 | 0
Фильмы (DVD фильмы) [ 7.15 GB ] Геракл / Hercules [2014 DVD9] R5 voovaz Скачать
1 | 0


Последний раз редактировалось: _KaisiK_ (2014-12-23 11:25), всего редактировалось 1 раз

28-11-2019 20:33  

Отключить всю рекламу на сайте

17-11-2014 06:20 Геракл Скачать торрент  

а рсширенная полный перевод будет ?pb.wtf



20-11-2014 15:05 Геракл Скачать торрент  

Как фильм ?
Смотреть стоит?pb.wtf



20-11-2014 15:17 Геракл Скачать торрент  

pindulumba писал(а):

Как фильм ?
Смотреть стоит?

смотри конечно, фильм ништякpb.wtf



01-01-2015 17:02 Геракл Скачать торрент  

хороший фильмец))pb.wtf



06-02-2015 17:23 Геракл Скачать торрент  

не смотрите, это ж пиндосы сделали, лучше смотреть наша рашаpb.wtf



    Дорогой пользователь! Огромная просьба, поблагодарите релизера, оцените раздачу и оставьте свои комментарий, если Вы скачали Геракл через торрент бесплатно! Внесите свою лепту в развитие PiratBit!
    Комментировать посты могут только пользователи прошедшие не сложную регистрацию
    Показать сообщения:    

    Геракл через торрент
    Скачать бесплатно Геракл
    Геракл скачать торрент
    Геракл смотреть онлайн
    Cкачать фильм Геракл бесплатно
    Геракл скачать торрент в хорошем качестве
    Геракл смотреть онлайн бесплатно в хорошем качестве


    Вы не можете начинать темы
    Вы не можете отвечать на сообщения
    Вы не можете редактировать свои сообщения
    Вы не можете удалять свои сообщения
    Вы не можете голосовать в опросах
    Вы не можете прикреплять файлы к сообщениям
    Вы можете скачивать файлы