Ссылка на приватное зеркало нашего сайта всего за 1$. Внимание количество ограничено!!!

2 сезон

iTunes

1 сезон

1

2 сезон

2 сезон

iTunes

1 сезон

RePack

30

Новинка

ВАЖНО

ИГРА 18+

pack

RePack

MK11
pack

Забери бонус

RePack

jed

!!Акция!!

Alien_Rage

RePack

fifa19

RePack

Assassins Creed: Odyssey

RePack

NEED FOR SPEED™ PAYBACK

4 сезон

9 сезон

Бесстыжие 9 сезон

Все сериалы

все сериалы на PB.wtf

RePack

FAR CRY 5
  

Атлантида / Atlantis / Сезон: 2 / Серии 1-11 из 13 (Элис Тротон / Alice Troughton, Джастин Молотников / Justin Molotnikov, Деклан О’Двайр / Declan O'Dwyer) [2014, Великобритания, фэнтези, драма, приключения, WEB-DLRip] MVO [BaibaKo] pb.wtf

Атлантида через торрент pb.wtf

Размер: 6.43 GB | Добавлен: 5 лет 6 мес. назад | Торрент скачан:91 раз
Скачать  

17-11-2014 03:38 Атлантида Скачать торрент  

Атлантида / Atlantis


  • Год выпуска: 2014
  • Страна: Великобритания
  • Жанр: фэнтези, драма, приключения
  • Продолжительность: 00:42:32 (Серия)
  • Перевод: Профессиональный многоголосый закадровый) [BaibaKo]

  • Режиссер: Элис Тротон / Alice Troughton, Джастин Молотников / Justin Molotnikov, Деклан О’Двайр / Declan O'Dwyer
  • В ролях:

    Марк Эдди (Hercules), Джек Доннелли (Jason), Роберт Эммс (Pythagoras), Джемайма Рупер (Medusa), Аийша Харт (Ariadne), Джульет Стивенсон (The Oracle), Сара Пэриш (Pasiphae), Александр Сиддиг (Minos), Оливер Уолкер (Heptarian), Джо Диксон (Ramos), Ханна Артертон (Korinna), Мартин Мейджер (Atlantan)

  • Описание:
    Молодой Ясон в наше время отправляется на поиски своего отца, но оказывается выброшенным на берег таинственной земли. Город Атлантида - это древний мир мифических существ, оракулов-предсказателей, богинь со змеями вместо волос и настолько огромных дворцов, что поговаривают, будто они построены великанами. Но вскоре Ясон оказывается втянут в смертельный ритуал, от которого нет спасения...
  • Рейтинг:



  • Качество: WEB-DLRip
  • Формат: :AVI
  • Видео кодек: XviD
  • Аудио кодек: MP3
  • Видео: 720x400 (16:9), 1501 kbps, 25 fps, 0,209 bpp
  • Аудио №1: Русский 2.0 / 48 kHz / 192 kbps
  • Аудио №2: Английский 2.0 / 48 kHz / 192 kbps
  • Релиз от: GEKADOL

    Код:

    Внимание! Раздача ведётся путём добавления новых серий; при каждом добавлении создаётся новый торрент. Чтобы начать докачку новой серии, пользователям необходимо сделать следующее:
    (1) остановить скачивание,
    (2) удалить старый торрент у себя из клиента (старые серии удалять не надо),
    (3) скачать новый торрент и запустить его у себя в клиенте вместо старого, при этом указать клиенту путь в старую папку куда и должно происходить скачивание новых серий.
    Ваш клиент при этом должен произвести хеширование (проверку) старой папки (если не производит сам - помогите ему сделать это), и будет докачивать только те серии которых у вас ещё нет. Старые серии при этом не удаляются, а продолжают раздаваться!
    Eсли вы уже удалили старые серии, то предотвратить повторную закачку старых серий можно, отжав галочку в соответсвующих местах при запуске нового торрента. По возможности, желательно не удалять старые серии как можно дольше чтобы релизёр не столько продолжал раздавать старые серии, а смог сконцентрироваться на новых.


    Код:

    General
    Complete name                            : D:\Фильмы\Atlantis (S02)\Atlantis.s02e01.WEB-DLRip.XviD.Rus.Eng.BaibaKo.tv.avi
    Format                                   : AVI
    Format/Info                              : Audio Video Interleave
    File size                                : 578 MiB
    Duration                                 : 42mn 32s
    Overall bit rate                         : 1 900 Kbps
    Writing application                      : VirtualDubMod 1.5.10.2 (build 2540/release)
    Writing library                          : VirtualDubMod build 2540/release

    Video
    ID                                       : 0
    Format                                   : MPEG-4 Visual
    Format profile                           : Advanced Simple@L5
    Format settings, BVOP                    : 2
    Format settings, QPel                    : No
    Format settings, GMC                     : No warppoints
    Format settings, Matrix                  : Default (H.263)
    Codec ID                                 : XVID
    Codec ID/Hint                            : XviD
    Duration                                 : 42mn 32s
    Bit rate                                 : 1 502 Kbps
    Width                                    : 720 pixels
    Height                                   : 400 pixels
    Display aspect ratio                     : 16:9
    Frame rate                               : 25.000 fps
    Color space                              : YUV
    Chroma subsampling                       : 4:2:0
    Bit depth                                : 8 bits
    Scan type                                : Progressive
    Compression mode                         : Lossy
    Bits/(Pixel*Frame)                       : 0.209
    Stream size                              : 457 MiB (79%)
    Writing library                          : XviD 1.2.1 (UTC 2008-12-04)

    Audio #1
    ID                                       : 1
    Format                                   : MPEG Audio
    Format version                           : Version 1
    Format profile                           : Layer 3
    Mode                                     : Joint stereo
    Mode extension                           : MS Stereo
    Codec ID                                 : 55
    Codec ID/Hint                            : MP3
    Duration                                 : 42mn 32s
    Bit rate mode                            : Constant
    Bit rate                                 : 192 Kbps
    Channel(s)                               : 2 channels
    Sampling rate                            : 48.0 KHz
    Compression mode                         : Lossy
    Stream size                              : 58.4 MiB (10%)
    Alignment                                : Aligned on interleaves
    Interleave, duration                     : 40 ms (1.00 video frame)
    Interleave, preload duration             : 504 ms
    Writing library                          : LAME3.99.5ЄЄЄЄЄЄЄЄЄЄ

    Audio #2
    ID                                       : 2
    Format                                   : MPEG Audio
    Format version                           : Version 1
    Format profile                           : Layer 3
    Mode                                     : Joint stereo
    Codec ID                                 : 55
    Codec ID/Hint                            : MP3
    Duration                                 : 42mn 32s
    Bit rate mode                            : Constant
    Bit rate                                 : 192 Kbps
    Channel(s)                               : 2 channels
    Sampling rate                            : 48.0 KHz
    Compression mode                         : Lossy
    Stream size                              : 58.4 MiB (10%)
    Alignment                                : Aligned on interleaves
    Interleave, duration                     : 40 ms (1.00 video frame)
    Interleave, preload duration             : 504 ms
    Writing library                          : LAME3.99.5ЄЄЄЄЄЄЄЄЄЄ


    Скриншоты:
    скриншот   скриншот   скриншот   скриншот   скриншот  
    скриншот  

    Раздача ведётся путём добавления новых серий. Добавлена 11 серия (25.05.2015).Просьба перекачать торрент файл.

    pb.wtf



  • Скачать Атлантида через торрент http://i65.fastpic.ru/big/2014/1117/55/01d23002d074cf07621c418ef994b755.png Скачать фильм Атлантида через торрент бесплантно в хорошем качестве Описание: Молодой Ясон в наше время отправляется на поиски своего отца, но оказывается выброшенным на берег таинственной земли. Город ... 9.5 10 18
    Info! Серебряная раздача, засчитывается только 50% скачанного.
    Торрент: Зарегистрирован [2015-05-25 02:25] · скачан: 91 раз
    Статус: √ проверено
    Размер: 6.43 GB
    Как cкачать? Как скачать Атлантида через торрент | qTorrent



    Последний раз редактировалось: GEKADOL (2015-05-25 02:25), всего редактировалось 9 раз(а)

    28-11-2019 20:33  

    Отключить всю рекламу на сайте

    17-11-2014 06:16 Атлантида Скачать торрент  

    как сериал, стоит глянуть ? по трейлеру вроде ничегоpb.wtf



    11-12-2014 15:51 Атлантида Скачать торрент  

    Первый сезон был несколько своеобразным - пародия на различные мифы (или свое видение), не без юмора конечно. По мне, ничего так, неплохое время препровождение.pb.wtf



      Дорогой пользователь! Огромная просьба, поблагодарите релизера, оцените раздачу и оставьте свои комментарий, если Вы скачали Атлантида через торрент бесплатно! Внесите свою лепту в развитие PiratBit!
      Комментировать посты могут только пользователи прошедшие не сложную регистрацию
      Показать сообщения:    

      Атлантида через торрент
      Скачать бесплатно Атлантида
      Атлантида скачать торрент
      Атлантида смотреть онлайн
      Cкачать фильм Атлантида бесплатно
      Атлантида скачать торрент в хорошем качестве
      Атлантида смотреть онлайн бесплатно в хорошем качестве


      Вы не можете начинать темы
      Вы не можете отвечать на сообщения
      Вы не можете редактировать свои сообщения
      Вы не можете удалять свои сообщения
      Вы не можете голосовать в опросах
      Вы не можете прикреплять файлы к сообщениям
      Вы можете скачивать файлы