1 сезон

3 сезон

iTunes

1

Line

MVO

iTunes

13

1 сезон

RePack

30

Deluxe

pack

Лицензия

ВАЖНО

ИГРА 18+

pack

RePack

MK11

RePack

jed

RePack

fifa19

RePack

RDR2

RePack

NEED FOR SPEED™ PAYBACK

4 сезон

9 сезон

Бесстыжие 9 сезон

Все сериалы

все сериалы на PB.wtf

RePack

FAR CRY 5

Anonymous, доброй ночи, мы катастрофически не успеваем собрать деньги на оплату серверов, помогите нам пожалуйста 5,10,15р., для нас важна любая помощь . В качестве благодарности мы отключим Вам всю рекламу на сайте (укажите свой ник в строку Ваше имя)!

×
  
Magnet ссылка

Наполеон / N (Io e Napoleone) [2006 г., комедия, биография, история, DVDRip]MVO + Original Ita pb.wtf

Наполеон через торрент pb.wtf

Размер: 1.46 GB | Добавлен: 6 лет 8 мес. назад | Торрент скачан:38 раз
Скачать  

17-11-2014 11:13 Наполеон Скачать торрент  

Наполеон / N (Io e Napoleone)
Год выпуска: 2006
Страна: Франция, Италия, Испания
Жанр: комедия, биография, история
Продолжительность: 01:43:58
Перевод: Профессиональный многоголосый



В ролях: Даниель Отей, Моника Беллуччи, Элио Джермано, Сабрина Импаччииаторе и другие

Описание: Год 1814 Остров Эльба. Мартино - молодой преподаватель и идеалист,влюбленный в красивую и благородную Баронессу Эмилию.Молодой человек служит библиотекарем Императору, находящемуся в изгнании, которого он глубоко ненавидит, но все же скоро начинает писать мемуары Наполеона. Он постепенно узнает и оценивает Императора вне мифов. Среди соблазнов, дел, ожиданий, он создает точный портрет Наполеона.

Доп. информация: DVDRip by romaska

Качество: DVDRip
Формат: AVI
Видео кодек: XviD
Аудио кодек: AC3
Видео: 720 x 304 (45:19), 1605 kbps, 25.000 fps
Аудио#1: Russian 48000Hz 192 kb/s, stereo (2/0) 48,0 КГц
Аудио#2: Ita 48000Hz 192 kb/s, stereo (2/0) 48,0 КГц
Общее
Полное имя : F:\Наполеон N (Io e Napoleone)\N.Io.e.Napoleone.ru-it.DVDRip.avi
Формат : AVI
Формат/Информация : Audio Video Interleave
Размер файла : 1,46 Гбайт
Продолжительность : 1 ч. 43 м.
Общий поток : 2004 Кбит/сек
Режиссёр : BINMoVIE.ORG
Программа кодирования : VirtualDubMod 1.6.0.0 SURROUND (build 2560/release)
Библиотека кодирования : VirtualDubMod build 2560/release
Правообладатель : DVDRip by romaska

Видео
Идентификатор : 0
Формат : MPEG-4 Visual
Параметр BVOP формата : Да
Параметр QPel формата : Нет
Параметр GMC формата : Без точки перехода
Параметр матрицы формата : Default (H.263)
Идентификатор кодека : DX50
Идентификатор кодека/Подсказка : DivX 5
Продолжительность : 1 ч. 43 м.
Битрейт : 1605 Кбит/сек
Ширина : 720 пикселей
Высота : 304 пикселя
Соотношение сторон : 5:4
Соотношение сторон в оригинале : 2,35:1
Частота кадров : 25,000 кадров/сек
Цветовое пространство : YUV
Субдискретизация насыщенности : 4:2:0
Битовая глубина : 8 бит
Тип развёртки : Прогрессивная
Метод сжатия : С потерями
Бит/(Пиксели*Кадры) : 0.293
Размер потока : 1,17 Гбайт (80%)
Библиотека кодирования : DivX 6.8.5 (UTC 2009-08-20)

Аудио #1
Идентификатор : 1
Формат : AC-3
Формат/Информация : Audio Coding 3
Расширение режима : CM (complete main)
Параметр Endianness формата : Big
Идентификатор кодека : 2000
Продолжительность : 1 ч. 43 м.
Вид битрейта : Постоянный
Битрейт : 192 Кбит/сек
Каналы : 2 канала
Расположение каналов : Front: L R
Частота : 48,0 КГц
Битовая глубина : 16 бит
Метод сжатия : С потерями
Размер потока : 143 Мбайт (10%)
Выравнивание : Разделение по промежуткам
Продолжительность промежутка : 40 мс. (1,00 видеокадр)
Время предзагрузки промежутка : 500 мс.

Аудио #2
Идентификатор : 2
Формат : AC-3
Формат/Информация : Audio Coding 3
Расширение режима : CM (complete main)
Параметр Endianness формата : Big
Идентификатор кодека : 2000
Продолжительность : 1 ч. 43 м.
Вид битрейта : Постоянный
Битрейт : 192 Кбит/сек
Каналы : 2 канала
Расположение каналов : Front: L R
Частота : 48,0 КГц
Битовая глубина : 16 бит
Метод сжатия : С потерями
Размер потока : 143 Мбайт (10%)
Выравнивание : Разделение по промежуткам
Продолжительность промежутка : 40 мс. (1,00 видеокадр)
Время предзагрузки промежутка : 500 мс.


Наполеон скачать торрент


pb.wtf



Скачать Наполеон через торрент https://pic1.kartinco.top/images/81/ph6kq.jpg Скачать фильм Наполеон через торрент бесплантно в хорошем качестве Описание: Год 1814 Остров Эльба. Мартино - молодой преподаватель и идеалист,влюбленный в красивую и благородную Баронессу Эмилию.Молодой ... 10 10 2
Торрент: Зарегистрирован [2014-11-17 11:13] · скачан: 38 раз
Статус: √ проверено
Размер: 1.46 GB
Как cкачать? Как скачать Наполеон через торрент | UTorrent

28-11-2019 20:33  

Отключить всю рекламу на сайте

    Дорогой пользователь! Огромная просьба, поблагодарите релизера, оцените раздачу и оставьте свои комментарий, если Вы скачали Наполеон через торрент бесплатно! Внесите свою лепту в развитие PiratBit!
    Комментировать посты могут только пользователи прошедшие не сложную регистрацию
    Показать сообщения:    

    Наполеон через торрент
    Скачать бесплатно Наполеон
    Наполеон скачать торрент
    Наполеон смотреть онлайн
    Cкачать фильм Наполеон бесплатно
    Наполеон скачать торрент в хорошем качестве
    Наполеон смотреть онлайн бесплатно в хорошем качестве


    Вы не можете начинать темы
    Вы не можете отвечать на сообщения
    Вы не можете редактировать свои сообщения
    Вы не можете удалять свои сообщения
    Вы не можете голосовать в опросах
    Вы не можете прикреплять файлы к сообщениям
    Вы можете скачивать файлы