MEGA SALE -75% Borderlands 3 Super Deluxe всего за 550р. 180 руб. (супер цена). Внимание количество ограничено!!!

iTunes

1+1

iTunes

мы

iTunes

1

iTunes

Чернобыль

iTunes

Ральф против интернета

Лицензия

ПШазам

Лицензия

Игра престолов

Лицензия

30
pack

ВАЖНО

!!Акция!!

Alien_RageХит недели

RePack

Resident Evil 21

ИГРА 18+

pack

RePack

Metro:Exodus

!!Акция!!

Alien_Rage

RePack

fifa19

RePack

Assassins Creed: Odyssey

RePack

NEED FOR SPEED™ PAYBACK

3 сезон

9 сезон

Бесстыжие 9 сезон

Все сериалы

все сериалы на PB.wtf

RePack

FAR CRY 5
Ребята, катастрофически не хватает 1900р. для оплаты серверов за АВГУСТ (всвязи с блокировками трафик упал в 3 раза), 1-2р., выручайте.
  

Праздника не будет! / Ultimo capodanno, L' (Марко Ризи / Marco Risi) [1998, Италия, Черная комедия, DVDRip] MVO + original ita + Sub rus,eng pb.wtf

Праздника не будет! через торрент pb.wtf

Размер: 2.05 GB | Добавлен: 4 года 10 мес. назад | Торрент скачан:53 раза
Скачать  

17-11-2014 11:32 Праздника не будет! Скачать торрент  

Праздника не будет / L'ultimo capodanno
Год выпуска: 1998
Страна: Италия
Жанр: черная комедия
Продолжительность: 01:37:43
Перевод: Профессиональный многоголосый
Субтитры: Русские, английские (отдельно)

Режиссер: Марко Ризи / Marco Risi



В ролях: Макс Маззотта (Fishbone), Моника Беллуччи (Giulia), Беппе Фиорелло (Gaetano),Марко Джаллини (Enzo), Клаудио Сантамария (Cristiano), Алессандро Абер (Lawyer Rimaldi), Людовика Модуньо (Filomena), Пьеро Натоли (Vittorio), Ива Заникки(Cristiano's mother), Мария Монти (The Contessa), Джорджо Тирабасси (Augusto), Рикки Мемфис (Orecchino)

Описание: Вы знаете, что Новый год - смертельно опасный праздник? За несколько часов до Нового года экстравагантные обитатели роскошного дома «Остров» уже готовы праздновать: елка сверкает, стол накрыт, стареющая графиня в объятьях молодого любовника, адвокат-мазохист достал свою любимую плетку, а свечи для торта удачно заменили динамитные шашки. Но разве в такую ночь можно обойтись без сюрпризов?
К ничего не подозревающим любителям пикантных забав уже подбирается шайка грабителей и безумная орда лихих футбольных фанатов. Они умеют развлекаться на всю катушку, и ничего, если полгорода взлетит на воздух, главное - встретить Новый год с огоньком!

Качество: DVDRip
Формат: AVI
Видео кодек: XviD
Аудио кодек: AC3
Видео: 704x304 (2.32:1), 25 fps, ~2101 kbps avg, 0.39 bit/pixel
Аудио#1: 48 kHz, 3/2 (L,C,R,l,r) + LFE ch, ~448 kbps Russian
Аудио#2: 48 kHz, 3/2 (L,C,R,l,r) + LFE ch, ~448 kbps Italian
Общее
Полное имя : E:\Праздника не будет\Prazdnika.ne.budet.1998.DVDRip\Prazdnika.ne.budet.1998.DVDRip.avi
Формат : AVI
Формат/Информация : Audio Video Interleave
Профиль формата : OpenDML
Размер файла : 2,05 Гбайт
Продолжительность : 1 ч. 37 м.
Общий поток : 3005 Кбит/сек
Программа кодирования : VirtualDubModRus 1.5.10.2 (build 2542/release)
Библиотека кодирования : VirtualDubMod build 2542/release

Видео
Идентификатор : 0
Формат : MPEG-4 Visual
Профиль формата : Advanced Simple@L5
Параметр BVOP формата : 1
Параметр QPel формата : Нет
Параметр GMC формата : Без точки перехода
Параметр матрицы формата : Выборочная
Идентификатор кодека : XVID
Идентификатор кодека/Подсказка : XviD
Продолжительность : 1 ч. 37 м.
Битрейт : 2090 Кбит/сек
Ширина : 704 пикселя
Высота : 304 пикселя
Соотношение сторон : 2,35:1
Частота кадров : 25,000 кадров/сек
Цветовое пространство : YUV
Субдискретизация насыщенности : 4:2:0
Битовая глубина : 8 бит
Тип развёртки : Прогрессивная
Метод сжатия : С потерями
Бит/(Пиксели*Кадры) : 0.391
Размер потока : 1,43 Гбайт (70%)
Библиотека кодирования : XviD 73

Аудио #1
Идентификатор : 1
Формат : AC-3
Формат/Информация : Audio Coding 3
Расширение режима : CM (complete main)
Параметр Endianness формата : Big
Идентификатор кодека : 2000
Продолжительность : 1 ч. 37 м.
Вид битрейта : Постоянный
Битрейт : 448 Кбит/сек
Каналы : 6 каналов
Расположение каналов : Front: L C R, Side: L R, LFE
Частота : 48,0 КГц
Битовая глубина : 16 бит
Метод сжатия : С потерями
Размер потока : 313 Мбайт (15%)
Выравнивание : Разделение по промежуткам
Продолжительность промежутка : 40 мс. (1,00 видеокадр)
Время предзагрузки промежутка : 500 мс.

Аудио #2
Идентификатор : 2
Формат : AC-3
Формат/Информация : Audio Coding 3
Расширение режима : CM (complete main)
Параметр Endianness формата : Big
Идентификатор кодека : 2000
Продолжительность : 1 ч. 37 м.
Вид битрейта : Постоянный
Битрейт : 448 Кбит/сек
Каналы : 6 каналов
Расположение каналов : Front: L C R, Side: L R, LFE
Частота : 48,0 КГц
Битовая глубина : 16 бит
Метод сжатия : С потерями
Размер потока : 313 Мбайт (15%)
Выравнивание : Разделение по промежуткам
Продолжительность промежутка : 40 мс. (1,00 видеокадр)
Время предзагрузки промежутка : 500 мс.


Праздника не будет скачать торрент


pb.wtf



Скачать Праздника не будет! через торрент http://pic.kartinco.top/images/8/c96dj.jpg Скачать фильм Праздника не будет! через торрент бесплантно в хорошем качестве Описание: Вы знаете, что Новый год - смертельно опасный праздник? За несколько часов до Нового года экстравагантные обитатели роскошного ... 10 10 2
Торрент: Зарегистрирован [2014-11-17 11:32] · скачан: 53 раз
Статус: √ проверено
Размер: 2.05 GB
Как cкачать? Как скачать Праздника не будет! через торрент | qTorrent


>> Регистрируемся здесь <<






Отзывы и комментарии о схеме читаем и пишем здесь: ---> Отзывы и комментарии о схеме

Новые благодарочки в телеграм довольных пользователей:
скриншот   скриншот   скриншот   скриншот   скриншот
    Дорогой пользователь! Огромная просьба, поблагодарите релизера, оцените раздачу и оставьте свои комментарий, если Вы скачали Праздника не будет! через торрент бесплатно! Внесите свою лепту в развитие PiratBit!
    Комментировать посты могут только пользователи прошедшие не сложную регистрацию
    Показать сообщения:    

    Праздника не будет! через торрент
    Скачать бесплатно Праздника не будет!
    Праздника не будет! скачать торрент
    Праздника не будет! смотреть онлайн
    Cкачать фильм Праздника не будет! бесплатно
    Праздника не будет! скачать торрент в хорошем качестве
    Праздника не будет! смотреть онлайн бесплатно в хорошем качестве


    Вы не можете начинать темы
    Вы не можете отвечать на сообщения
    Вы не можете редактировать свои сообщения
    Вы не можете удалять свои сообщения
    Вы не можете голосовать в опросах
    Вы не можете прикреплять файлы к сообщениям
    Вы можете скачивать файлы